.
Авторизация | Регистрация
» » Ведьмы из Сугаррамурди / Las brujas de Zugarramurdi / Witching and Bitching (2013) BDRip 1080p от CINEMANIA | D торрент скачать бесплатно




    Ведьмы из Сугаррамурди / Las brujas de Zugarramurdi / Witching and Bitching (2013) BDRip 1080p от CINEMANIA | D торрент скачать бесплатно

    Опубликовал: Админ | Дата: 27-02-2015, 11:10 | Просмотров: 196



    Детально о кино
    Русское название: Ведьмы из Сугаррамурди
    Русское название в мировом прокате: Las brujas de Zugarramurdi / Witching and Bitching
    Создали в: 2013
    Категория жанра: ужасы, драма, комедия
    Главный режиссер: Алекс де ла Иглесиа
    Актеры: Марио Касас, Уго Силва, Хавьер Ботет, Сантьяго Сегура, Каролина Банг, Кармен Маура, Карлос Аресес, Секун де ла Роса, Макарена Гомес, Пепон Ниэто

    Сюжет фильма:
    Быть настоящим вором – это искусство, но три несчастливых взломщика к этому искусству никак не причастны. Парни постоянно находят себе проблемы с законом, полицией и окружающим миром, чтобы они не делали. Убегая от погони на очередном провалившемся деле, они случайно попали в заколдованный город. Сугаррамурда уже несколько веков терпит непрерывные пиршества и шабаши коварных и злых ведьм. Его обитатели уже привыкли к магии на каждом своем шагу, но три парня из вполне реального мира мечтают вырваться из этого гиблого места, чтобы опять окунутся в скучные, но родные реалии собственных жизней.

    Они даже обманывают колдуний, чтобы только найти выход из этого причудливого мира. Вот только выбраться из Сугаррамурди практически невозможно. А если хотя бы кто-то из них умудрится влюбиться в одну из десятков красавиц-ведьм, то дорога назад будет безвозвратно потеряна. Вот и приходится им терпеть капризы безжалостных женщин, для которых колдовство – это не просто хобби, а вся жизнь. Незадачливым воришкам придется пройти через многие неприятный приключения, прежде чем они поймут, что дверь из придуманного мира Сугаррамурди больше не откроется. Или у парней все же есть маленький шанс на прежнюю жизнь?



    Снималось в: Испания, Франция
    Время просмотра: 01:54:03
    Тип перевода: Дублированное Лицензия

    Файл
    Тип видео: MKV
    Качество фильма: BDRip 1080p PHD
    Информация о видео: 10201 kb/s, 1920x812
    Информация о звуке: Russian: AC3, 384 kb/s (6 ch) / Spanich: AC3, 448 kb/s (6 ch)
    Субтитры: Russian, English
    Дополнительно: Сохранены оригинальные чаптеры как на Blu-Ray
    Размер скачиваемого торрента: 8.96 Gb
    Скачать: Сэмпл

    Релиз группы:




    NFO
    Общее
    Witching.and.Bitching.2013.Blu.Ray.1080p.CINEMANIA.mkv
    Формат : Matroska
    Версия формата : Version 4 / Version 2
    Размер файла : 8,96 Гбайт
    Продолжительность : 1 ч. 54 м.
    Общий поток : 11,2 Мбит/сек
    Название фильма : Release Group CINEMANIA
    Дата кодирования : UTC 2014-03-23 21:42:54
    Программа кодирования : mkvmerge v6.8.0 (;Theme for Great Cities;) 64bit built on Mar 2 2014 21:34:26
    Библиотека кодирования : libebml v1.3.0 libmatroska v1.4.1

    Видео
    Идентификатор : 1
    Формат : AVC
    Формат/Информация : Advanced Video Codec
    Профиль формата : High@L4.1
    Параметр CABAC формата : Да
    Параметр ReFrames формата : 5 кадров
    Идентификатор кодека : V_MPEG4/ISO/AVC
    Продолжительность : 1 ч. 54 м.
    Битрейт : 10,2 Мбит/сек
    Ширина : 1920 пикселей
    Высота : 812 пикселей
    Соотношение сторон : 2,35:1
    Режим частоты кадров : Постоянный
    Частота кадров : 23,976 кадра/сек
    Цветовое пространство : YUV
    Субдискретизация насыщенности : 4:2:0
    Битовая глубина : 8 бит
    Тип развёртки : Прогрессивная
    Бит/(Пиксели*Кадры) : 0.273
    Размер потока : 8,12 Гбайт (91%)
    Заголовок : Release Group CINEMANIA
    Язык : English
    Default : Да
    Forced : Нет

    Аудио #1
    Идентификатор : 2
    Формат : AC-3
    Формат/Информация : Audio Coding 3
    Расширение режима : CM (complete main)
    Параметр Endianness формата : Big
    Идентификатор кодека : A_AC3
    Продолжительность : 1 ч. 54 м.
    Вид битрейта : Постоянный
    Битрейт : 384 Кбит/сек
    Каналы : 6 каналов
    Расположение каналов : Front: L C R, Side: L R, LFE
    Частота : 48,0 КГц
    Битовая глубина : 16 бит
    Метод сжатия : С потерями
    Размер потока : 313 Мбайт (3%)
    Заголовок : Лицензия
    Язык : Russian
    Default : Да
    Forced : Да

    Аудио #2
    Идентификатор : 3
    Формат : AC-3
    Формат/Информация : Audio Coding 3
    Расширение режима : CM (complete main)
    Параметр Endianness формата : Big
    Идентификатор кодека : A_AC3
    Продолжительность : 1 ч. 54 м.
    Вид битрейта : Постоянный
    Битрейт : 448 Кбит/сек
    Каналы : 6 каналов
    Расположение каналов : Front: L C R, Side: L R, LFE
    Частота : 48,0 КГц
    Битовая глубина : 16 бит
    Метод сжатия : С потерями
    Размер потока : 366 Мбайт (4%)
    Язык : Spanish
    Default : Нет
    Forced : Нет

    Текст #1
    Идентификатор : 4
    Формат : UTF-8
    Идентификатор кодека : S_TEXT/UTF8
    Идентификатор кодека/Информация : UTF-8 Plain Text
    Язык : Russian
    Default : Нет
    Forced : Нет

    Текст #2
    Идентификатор : 5
    Формат : UTF-8
    Идентификатор кодека : S_TEXT/UTF8
    Идентификатор кодека/Информация : UTF-8 Plain Text
    Язык : English
    Default : Нет
    Forced : Нет

    Меню
    00:00:00.000 : en:00:00:00.000
    00:05:18.401 : en:00:05:18.401
    00:14:16.064 : en:00:14:16.064
    00:18:47.960 : en:00:18:47.960
    00:23:34.872 : en:00:23:34.872
    00:30:42.007 : en:00:30:42.007
    00:34:54.134 : en:00:34:54.134
    00:42:24.792 : en:00:42:24.792
    00:49:37.308 : en:00:49:37.308
    00:55:15.312 : en:00:55:15.312
    00:59:06.501 : en:00:59:06.501
    01:06:33.239 : en:01:06:33.239
    01:09:32.293 : en:01:09:32.293
    01:14:56.534 : en:01:14:56.534
    01:20:45.257 : en:01:20:45.257
    01:25:12.733 : en:01:25:12.733
    01:31:20.809 : en:01:31:20.809
    01:35:17.712 : en:01:35:17.712
    01:46:46.734 : en:01:46:46.734
    01:49:21.054 : en:01:49:21.054

    Залил: DGEKIGAN
    Размер скачиваемого торрента: 8.96 GB (9621500644 Bytes)

    Ведьмы из Сугаррамурди / Las brujas de Zugarramurdi / Witching and Bitching (2013) BDRip 1080p от CINEMANIA | D торрент скачать бесплатно
    загрузка...
    Рейтинг →
     (голосов: 1, оценка 5/5, голосовать можно 1 раз )

    Другие торренты по теме:



      Комментарии (0):

      Информация

      Информация

        Посетители, находящиеся в группе Гости, не могут оставлять комментарии в данной новости.

        ↓ Меню



        ↓ Опрос

        А Вы добавили сайт в закладки?
        Да
        Не


        Top 10 за неделю (Фильмы)