.
Авторизация | Регистрация
» » Самоволка / Леон / Lionheart (1990) WEB-DLRip от Leon-masl торрент скачать бесплатно




    Самоволка / Леон / Lionheart (1990) WEB-DLRip от Leon-masl торрент скачать бесплатно

    Опубликовал: Админ | Дата: 27-02-2015, 11:10 | Просмотров: 385



    Детально о кино
    Русское название: Самоволка / Леон
    Русское название в мировом прокате: Lionheart
    Создали в: 1990
    Категория жанра: боевик, драма, спорт
    Главный режиссер: Шелдон Леттич / Sheldon Lettich
    Актеры: Жан-Клод Ван Дамм, Хэррисон Пэйдж, Дебора Реннард, Лиза Пелайкэн, Эшли Джонсон, Брайан Томпсон

    Сюжет фильма:
    Узнав, что его брат в Лос-Анджелесе серьезно ранен, Лайон Голтье дезертирует из французского иностранного легиона, базирующегося в отдаленном районе Северной Африки.
    Скрываясь от двух боевиков-легионеров, которым дан приказ вернуть его любой ценой, Лайон против своего желания становится участником незаконных боев современных гладиаторов, дерущихся голыми руками для развлечения богатых. Ему нужны деньги, чтобы помочь семье своего брата.




    Снималось в: США
    Киностудия: Imperial Entertainment Corporation, Guild, Sunil
    Время просмотра: 01:45:02
    Перевод текста: Авторский (одноголосый закадровый) Андрей Гаврилов

    Файл
    Кодек для видео: XviD
    Качество фильма: WEB-DLRip
    Информация о видео: 704x384, 23.976 fps. 2199 kbps
    Информация о звуке 1: 48 kHz, AC3 Dolby Digital, 2/0 (L,R) ch, ~192 kbps - Гаврилов
    Информация о звуке 2: 48 kHz, AC3 Dolby Digital, 2/0 (L,R) ch, ~192 kbps - Оригинал
    MI
    Общее
    Полное имя : Samovolka.1990.WEBDLRip.avi
    Формат : AVI
    Формат/Информация : Audio Video Interleave
    Размер файла : 1,91 Гбайт
    Продолжительность : 1 ч. 45 м.
    Общий поток : 2597 Кбит/сек
    Программа кодирования : VirtualDubMod 1.5.10.2 (build 2542/release)
    Библиотека кодирования : VirtualDubMod build 2542/release

    Видео
    Идентификатор : 0
    Формат : MPEG-4 Visual
    Профиль формата : Advanced Simple@L5
    Параметр BVOP формата : 2
    Параметр QPel формата : Нет
    Параметр GMC формата : Без точки перехода
    Параметр матрицы формата : Выборочная
    Идентификатор кодека : XVID
    Идентификатор кодека/Подсказка : XviD
    Продолжительность : 1 ч. 45 м.
    Битрейт : 2199 Кбит/сек
    Ширина : 704 пикс.
    Высота : 384 пикс.
    Соотношение сторон : 16:9
    Частота кадров : 23,976 кадр/сек
    Цветовое пространство : YUV
    Подвыборка цветности : 4:2:0
    Битовая глубина : 8 бит
    Тип развёртки : Прогрессивная
    Метод сжатия : С потерями
    Бит/(Пиксели*Кадры) : 0.339
    Размер потока : 1,61 Гбайт (85%)
    Библиотека кодирования : XviD 73

    Аудио #1
    Идентификатор : 1
    Формат : AC-3
    Формат/Информация : Audio Coding 3
    Расширение режима : CM (complete main)
    Идентификатор кодека : 2000
    Продолжительность : 1 ч. 45 м.
    Вид битрейта : Постоянный
    Битрейт : 192 Кбит/сек
    Канал(ы) : 2 канала(ов)
    Расположение каналов : Front: L R
    Частота : 48,0 КГц
    Битовая глубина : 16 бит
    Метод сжатия : С потерями
    Размер потока : 144 Мбайт (7%)
    Выравнивание : Разделение по промежуткам
    Продолжительность промежутка : 42 мс. (1,00 видеокадр)
    Время предзагрузки промежутка : 500 ms

    Аудио #2
    Идентификатор : 2
    Формат : AC-3
    Формат/Информация : Audio Coding 3
    Расширение режима : CM (complete main)
    Идентификатор кодека : 2000
    Продолжительность : 1 ч. 45 м.
    Вид битрейта : Постоянный
    Битрейт : 192 Кбит/сек
    Канал(ы) : 2 канала(ов)
    Расположение каналов : Front: L R
    Частота : 48,0 КГц
    Битовая глубина : 16 бит
    Метод сжатия : С потерями
    Размер потока : 144 Мбайт (7%)
    Выравнивание : Разделение по промежуткам
    Продолжительность промежутка : 42 мс. (1,00 видеокадр)
    Время предзагрузки промежутка : 500 ms
    Скриншоты для ознакомления


    Релиз подготовил: Leon-masl
    Залил: leon-masl
    Размер скачиваемого торрента: 1.91 GB (2046494720 Bytes)

    Самоволка / Леон / Lionheart (1990) WEB-DLRip от Leon-masl торрент скачать бесплатно
    загрузка...
    Рейтинг →
     (голосов: 1, оценка 3/5, голосовать можно 1 раз )

    Другие торренты по теме:

  • Самоволка / Lionheart (1990) DVDRip | A | Full version торрент скачать бесплатно
  • Самоволка / Леон / Львиное сердце / Lionheart (1990) DVDRip от Scarabey | Р торрент скачать бесплатно
  • Самоволка / Леон / Львиное сердце / Lionheart (1990) HDRip от Scarabey | Гаврилов скачать через торрент бесплатно
  • Самоволка / Леон / Львиное сердце / Lionheart (1990) HDRip от Scarabey | P скачать через торрент бесплатно
  • Самоволка / Леон / Львиное сердце / Lionheart (1990) WEB-DLRip-AVC | P, A скачать через торрент бесплатно
  • Самоволка / Леон / Львиное сердце / Lionheart (1990) WEB-DLRip-AVC от New-Team | A, P | Гаврилов торрент скачать бесплатно
  • Пограничье. Самоволка скачать через торрент бесплатно
  • Сергей Лукьяненко, Михаил Тырин - Самоволка (2014) (2014) MP3 торрент скачать бесплатно


    • Комментарии (0):

      Информация

      Информация

        Посетители, находящиеся в группе Гости, не могут оставлять комментарии в данной новости.

        ↓ Меню



        ↓ Опрос

        А Вы добавили сайт в закладки?
        Да
        Не


        Top 10 за неделю (Фильмы)