.
Авторизация | Регистрация
» » Солдатики / Small Soldiers (1998) BDRemux 1080p от MediaClub | P, A торрент скачать бесплатно




    Солдатики / Small Soldiers (1998) BDRemux 1080p от MediaClub | P, A торрент скачать бесплатно

    Опубликовал: Админ | Дата: 27-02-2015, 11:10 | Просмотров: 213



    Детально о кино
    Русское название: Солдатики
    Русское название в мировом прокате: Small Soldiers
    Создали в: 1998
    Категория жанра: Фантастика, семейный
    Главный режиссер: Джо Данте
    Актеры: Кирстен Данст, Грегори Смит, Джей Мор, Фил Хартман, Кевин Данн, Дэвид Кросс

    Сюжет: Корпорация Глоботек задействовала в производстве игрушек военные технологии, один из разработчиков вставил в новую серию солдатиков сверхсовременные самообучающиеся микропроцессоры. В результате в магазин поступили злые десантники, запрограммированные воевать с добрыми фантастическими существами гаргонитами. Первым с ними столкнулся сын владельца маленького магазина игрушек, принявший сторону гаргонитов. Десантники, поначалу не трогавшие гражданских лиц вскоре перешли на совсем неигрушечные боевые действия и против людей. Мальчику, соседской девочке, а затем и их родителям пришлось вступить в бой. К ним присоединились и горе-разработчики, слишком поздно уразумевшие, каких бед они натворили. Даже мирные гаргониты, запрограммированные на то, чтобы прятаться, не выдержали и взялись за оружие.




    Снималось в: США
    Киностудия: Universal Pictures, DreamWorks SKG, Amblin Entertainment
    Время просмотра: 01:49:47
    Перевод текста: Профессиональный многоголосый, авторский одноголосый

    Файл
    Качество фильма: Blu-ray Remux 1080p
    Информация о видео: MPEG-4 AVC, 34994 Кбит/с, 1920x1080, 23.976 кадр/с
    Информация о звуке #1: Русский (AC3, 6 ch, 448 Кбит/с) / Профессиональный многоголосый (Позитив-Мультимедиа)
    Информация о звуке #2: Русский (AC3, 6 ch, 448 Кбит/с) / Авторский одноголосый (Гланц)
    Информация о звуке #3: Русский (AC3, 2 ch, 192 Кбит/с) / Профессиональный многоголосый (СТС)
    Информация о звуке #4: Русский (AC3, 2 ch, 192 Кбит/с) / Профессиональный многоголосый (VHS)
    Информация о звуке #5: Английский (DTS-HD MA, 6 ch, 1997 Кбит/с)
    Субтитры: Русские, анлийские

    Скриншоты для ознакомления


    MI
    Общее
    Уникальный идентификатор : 246374085309416321376030664012546849590 (0xB959EC3F5CEAE3BE850CD228B0BE3B36)
    Полное имя : D:Mои раздачиSoldatiki.1998.BDRemux.1080p-MediaClub.mkv
    Формат : Matroska
    Версия формата : Version 4 / Version 2
    Размер файла : 27,9 Гбайт
    Продолжительность : 1 ч. 49 м.
    Режим общего битрейта : Переменный
    Общий поток : 36,3 Мбит/сек
    Название фильма : -=MediaClub-kaspr=-
    Дата кодирования : UTC 2014-03-23 09:14:54
    Программа кодирования : mkvmerge v6.8.0 (;Theme for Great Cities;) 64bit built on Mar 2 2014 21:34:26
    Библиотека кодирования : libebml v1.3.0 libmatroska v1.4.1

    Видео
    Идентификатор : 1
    Формат : AVC
    Формат/Информация : Advanced Video Codec
    Профиль формата : High@L4.1
    Параметр CABAC формата : Да
    Параметр ReFrames формата : 4 кадра
    Параметр GOP формата : M=4, N=24
    Идентификатор кодека : V_MPEG4/ISO/AVC
    Продолжительность : 1 ч. 49 м.
    Вид битрейта : Постоянный
    Номинальный битрейт : 35,0 Мбит/сек
    Ширина : 1920 пикселей
    Высота : 1080 пикселей
    Соотношение сторон : 16:9
    Режим частоты кадров : Постоянный
    Частота кадров : 23,976 кадра/сек
    Стандарт вещания : NTSC
    Цветовое пространство : YUV
    Субдискретизация насыщенности : 4:2:0
    Битовая глубина : 8 бит
    Тип развёртки : Прогрессивная
    Бит/(Пиксели*Кадры) : 0.704
    Заголовок : -=MediaClub-kaspr=-
    Default : Да
    Forced : Да
    Основные цвета : BT.709
    Характеристики трансфера : BT.709
    Коэффициенты матрицы : BT.709

    Аудио #1
    Идентификатор : 2
    Формат : AC-3
    Формат/Информация : Audio Coding 3
    Расширение режима : CM (complete main)
    Параметр Endianness формата : Big
    Идентификатор кодека : A_AC3
    Продолжительность : 1 ч. 49 м.
    Вид битрейта : Постоянный
    Битрейт : 448 Кбит/сек
    Каналы : 6 каналов
    Расположение каналов : Front: L C R, Side: L R, LFE
    Частота : 48,0 КГц
    Битовая глубина : 16 бит
    Метод сжатия : С потерями
    Размер потока : 352 Мбайт (1%)
    Заголовок : MVO
    Язык : Russian
    Default : Да
    Forced : Да

    Аудио #2
    Идентификатор : 3
    Формат : AC-3
    Формат/Информация : Audio Coding 3
    Расширение режима : CM (complete main)
    Параметр Endianness формата : Big
    Идентификатор кодека : A_AC3
    Продолжительность : 1 ч. 49 м.
    Вид битрейта : Постоянный
    Битрейт : 448 Кбит/сек
    Каналы : 6 каналов
    Расположение каналов : Front: L C R, Side: L R, LFE
    Частота : 48,0 КГц
    Битовая глубина : 16 бит
    Метод сжатия : С потерями
    Размер потока : 352 Мбайт (1%)
    Заголовок : Гланц
    Язык : Russian
    Default : Нет
    Forced : Нет

    Аудио #3
    Идентификатор : 4
    Формат : AC-3
    Формат/Информация : Audio Coding 3
    Расширение режима : CM (complete main)
    Параметр Endianness формата : Big
    Идентификатор кодека : A_AC3
    Продолжительность : 1 ч. 49 м.
    Вид битрейта : Постоянный
    Битрейт : 192 Кбит/сек
    Каналы : 2 канала
    Расположение каналов : Front: L R
    Частота : 48,0 КГц
    Битовая глубина : 16 бит
    Метод сжатия : С потерями
    Размер потока : 151 Мбайт (1%)
    Заголовок : СТС
    Язык : Russian
    Default : Нет
    Forced : Нет

    Аудио #4
    Идентификатор : 5
    Формат : AC-3
    Формат/Информация : Audio Coding 3
    Расширение режима : CM (complete main)
    Параметр Endianness формата : Big
    Идентификатор кодека : A_AC3
    Продолжительность : 1 ч. 49 м.
    Вид битрейта : Постоянный
    Битрейт : 192 Кбит/сек
    Каналы : 2 канала
    Расположение каналов : Front: L R
    Частота : 48,0 КГц
    Битовая глубина : 16 бит
    Метод сжатия : С потерями
    Размер потока : 151 Мбайт (1%)
    Заголовок : VHS
    Язык : Russian
    Default : Нет
    Forced : Нет

    Аудио #5
    Идентификатор : 6
    Формат : DTS
    Формат/Информация : Digital Theater Systems
    Профиль формата : MA / Core
    Режим : 16
    Параметр Endianness формата : Big
    Идентификатор кодека : A_DTS
    Продолжительность : 1 ч. 49 м.
    Вид битрейта : Переменный
    Битрейт : Неизвестно / 1509 Кбит/сек
    Каналы : 6 каналов
    Расположение каналов : Front: L C R, Side: L R, LFE
    Частота : 48,0 КГц
    Битовая глубина : 16 бит
    Метод сжатия : Без потерь / Lossy
    Язык : English
    Default : Нет
    Forced : Нет

    Текст #1
    Идентификатор : 7
    Формат : UTF-8
    Идентификатор кодека : S_TEXT/UTF8
    Идентификатор кодека/Информация : UTF-8 Plain Text
    Язык : Russian
    Default : Нет
    Forced : Нет

    Текст #2
    Идентификатор : 8
    Формат : UTF-8
    Идентификатор кодека : S_TEXT/UTF8
    Идентификатор кодека/Информация : UTF-8 Plain Text
    Язык : English
    Default : Нет
    Forced : Нет

    Меню
    00:00:00.000 : en:Chapter 01
    00:07:30.324 : en:Chapter 02
    00:10:31.672 : en:Chapter 03
    00:18:36.281 : en:Chapter 04
    00:21:43.302 : en:Chapter 05
    00:29:40.528 : en:Chapter 06
    00:35:30.711 : en:Chapter 07
    00:42:50.484 : en:Chapter 08
    00:49:42.521 : en:Chapter 09
    00:58:14.699 : en:Chapter 10
    01:04:33.744 : en:Chapter 11
    01:12:49.740 : en:Chapter 12
    01:18:46.263 : en:Chapter 13
    01:28:05.905 : en:Chapter 14
    01:37:45.192 : en:Chapter 15
    01:44:15.165 : en:Chapter 16


    Релиз: |
    Залил: kaspr
    Размер скачиваемого торрента: 27.87 GB (29920590282 Bytes)

    Солдатики / Small Soldiers (1998) BDRemux 1080p от MediaClub | P, A торрент скачать бесплатно
    загрузка...
    Рейтинг →
     (голосов: 1, оценка 3/5, голосовать можно 1 раз )

    Другие торренты по теме:

  • Марш деревянных солдатиков / Babes in Toyland (1934) BDRip от HQCLUB | Color Version торрент скачать бесплатно
  • Солдатики 2 / Toy Defense 2 (2013) PC торрент скачать бесплатно
  • Солдатики 3: Средневековье / Toy defense 3: Fantasy (2014) Android торрент скачать бесплатно
  • Марш деревянных солдатиков / Babes in Toyland (1934) BDRip-AVC от ExKinoRay | P торрент скачать бесплатно
  • Солдатики / Small Soldiers (1998) BDRip 720p от MediaClub | P, A торрент скачать бесплатно
  • Солдатики / Small Soldiers (1998) BDRip 1080p от MediaClub | P, A скачать через торрент бесплатно
  • Солдатики / Small Soldiers (1998) BDRip-AVC от 0ptimus | P, A скачать через торрент бесплатно
  • Gunswords - Комнатные солдатики (2014) PC скачать через торрент бесплатно


    • Комментарии (0):

      Информация

      Информация

        Посетители, находящиеся в группе Гости, не могут оставлять комментарии в данной новости.

        ↓ Меню



        ↓ Опрос

        А Вы добавили сайт в закладки?
        Да
        Не


        Top 10 за неделю (Фильмы)