.
Авторизация | Регистрация
» » Забойный реванш / Grudge Match (2013) BDRip 720p | D | Чистый звук торрент скачать бесплатно




    Забойный реванш / Grudge Match (2013) BDRip 720p | D | Чистый звук торрент скачать бесплатно

    Опубликовал: Админ | Дата: 27-02-2015, 11:10 | Просмотров: 184

    Детально о кино
    Русское название: Забойный реванш / Grudge Match
    Создали в: 2013
    Категория жанра: Комедия, спорт
    Главный режиссер: Питер Сигал
    Актеры: Роберт Де Ниро, Сильвестр Сталлоне, Кевин Харт, Алан Аркин, Джон Бернтал, Ким Бейсингер, Курт Краузе, Старлетт Миариаунии, Пол Бен-Виктор, Стеффи Гроут


    Сюжет:
    Фильм расскажет о двух бывших боксерах, решающих вернуться на ринг ради финального матча, который должен будет уладить все их разногласия и расставить точки над и.








    * 12
    Детям до 12 лет просмотр не желателен





    Кстати

    * После финальных титров на стене можно заметить плакат, на котором написано Сигал против Юинга. Это ссылка на режиссера Питера Сигала и продюсера Майкла Юинга. На том же плакате еще написано Осбринк против Кинга — это ссылка на агента голливудских звезд Синди Осбринк (Cindy Osbrink) и боксерского промоутера Дона Кинга.

    * Роль Салли (Ким Бейсингер) в молодости сыграла дочь актрисы — Айрленд Болдуин.

    * Было снято несколько альтернативных концовок для защиты от возможной утечки информации.

    * В перерывах между дублями Садариас Харрелл писал песни для своего дебютного альбома. Когда при этом у него заканчивалась бумага, он начинал писать на денежных банкнотах.
    Инфо:

    Озвучивание: Дублированное Чистый звук
    Сохранены оригинальные чаптеры как на Blu-Ray
    Тех. данные


    Время просмотра: 01:53:16
    Снималось в: США, Warner Bros. Pictures, Gerber Pictures, Callahan Filmworks
    Перевод текста: Дублированный
    Субтитры: Английские

    Файл
    Тип видео: MKV
    Качество фильма: BDRip 720p
    Информация о видео: MPEG-4 AVC, 5400 Кбит/с, 1280x720
    Информация о звуке: Русский (AC3, 2 ch, 384 Кбит/с), английский (DTS, 6 ch, 1510 Кбит/с)
    MI:

    Общее
    Уникальный идентификатор : 187203547251516771653866265451623350338 (0x8CD6177BED394DB6B44982DADF280042)
    Полное имя : Grudge.Match.2013.D.BDRip.720p.mkv
    Формат : Matroska
    Версия формата : Version 2
    Размер файла : 5,76 Гбайт
    Продолжительность : 1 ч. 53 м.
    Общий поток : 7284 Кбит/сек
    Дата кодирования : UTC 2014-03-22 20:19:06
    Программа кодирования : mkvmerge v6.8.0 (;Theme for Great Cities;) 64bit built on Mar 2 2014 21:34:26
    Библиотека кодирования : libebml v1.3.0 libmatroska v1.4.1

    Видео
    Идентификатор : 1
    Формат : AVC
    Формат/Информация : Advanced Video Codec
    Профиль формата : High@L4.1
    Параметр CABAC формата : Да
    Параметр ReFrames формата : 5 кадров
    Идентификатор кодека : V_MPEG4/ISO/AVC
    Продолжительность : 1 ч. 53 м.
    Битрейт : 5392 Кбит/сек
    Ширина : 1280 пикселей
    Высота : 720 пикселей
    Соотношение сторон : 16:9
    Режим частоты кадров : Постоянный
    Частота кадров : 23,976 кадра/сек
    Цветовое пространство : YUV
    Субдискретизация насыщенности : 4:2:0
    Битовая глубина : 8 бит
    Тип развёртки : Прогрессивная
    Бит/(Пиксели*Кадры) : 0.244
    Размер потока : 4,15 Гбайт (72%)
    Библиотека кодирования : x264 core 140 r2377 1ca7bb9
    Настройки программы : cabac=1 / ref=5 / deblock=1:0:0 / analyse=0x3:0x133 / me=umh / subme=7 / psy=1 / psy_rd=1.00:0.00 / mixed_ref=1 / me_range=16 / chroma_me=1 / trellis=1 / 8x8dct=1 / cqm=0 / deadzone=21,11 / fast_pskip=0 / chroma_qp_offset=-2 / threads=36 / lookahead_threads=5 / sliced_threads=0 / nr=0 / decimate=1 / interlaced=0 / bluray_compat=0 / constrained_intra=0 / bframes=3 / b_pyramid=2 / b_adapt=1 / b_bias=0 / direct=1 / weightb=1 / open_gop=0 / weightp=2 / keyint=250 / keyint_min=23 / scenecut=40 / intra_refresh=0 / rc_lookahead=40 / rc=2pass / mbtree=1 / bitrate=5392 / ratetol=1.0 / qcomp=0.60 / qpmin=0 / qpmax=69 / qpstep=4 / cplxblur=20.0 / qblur=0.5 / ip_ratio=1.40 / aq=1:1.00
    Язык : English
    Default : Да
    Forced : Нет

    Аудио #1
    Идентификатор : 2
    Формат : AC-3
    Формат/Информация : Audio Coding 3
    Расширение режима : CM (complete main)
    Параметр Endianness формата : Big
    Идентификатор кодека : A_AC3
    Продолжительность : 1 ч. 53 м.
    Вид битрейта : Постоянный
    Битрейт : 384 Кбит/сек
    Каналы : 2 канала
    Расположение каналов : Front: L R
    Частота : 48,0 КГц
    Битовая глубина : 16 бит
    Метод сжатия : С потерями
    Размер потока : 311 Мбайт (5%)
    Язык : Russian
    Default : Да
    Forced : Нет

    Аудио #2
    Идентификатор : 3
    Формат : DTS
    Формат/Информация : Digital Theater Systems
    Режим : 16
    Параметр Endianness формата : Big
    Идентификатор кодека : A_DTS
    Продолжительность : 1 ч. 53 м.
    Вид битрейта : Постоянный
    Битрейт : 1509 Кбит/сек
    Каналы : 6 каналов
    Расположение каналов : Front: L C R, Side: L R, LFE
    Частота : 48,0 КГц
    Битовая глубина : 24 бит
    Метод сжатия : С потерями
    Размер потока : 1,19 Гбайт (21%)
    Язык : English
    Default : Нет
    Forced : Нет

    Текст
    Идентификатор : 4
    Формат : UTF-8
    Идентификатор кодека : S_TEXT/UTF8
    Идентификатор кодека/Информация : UTF-8 Plain Text
    Заголовок : English
    Язык : English
    Default : Нет
    Forced : Нет

    Меню
    00:00:00.000 : en:00:00:00.000
    00:10:07.232 : en:00:10:07.232
    00:19:20.785 : en:00:19:20.785
    00:29:24.972 : en:00:29:24.972
    00:39:11.849 : en:00:39:11.849
    00:50:06.003 : en:00:50:06.003
    00:59:09.337 : en:00:59:09.337
    01:09:21.741 : en:01:09:21.741
    01:20:02.464 : en:01:20:02.464
    01:29:20.605 : en:01:29:20.605
    01:39:52.778 : en:01:39:52.778
    01:45:15.935 : en:01:45:15.935
    Скриншоты для ознакомления



    Размер скачиваемого торрента: 5.76 GB (6189086834 Bytes)

    Забойный реванш / Grudge Match (2013) BDRip 720p | D | Чистый звук торрент скачать бесплатно
    загрузка...
    Рейтинг →
     (голосов: 1, оценка 3/5, голосовать можно 1 раз )

    Другие торренты по теме:

  • Забойный реванш (2013) торрент скачать бесплатно
  • Забойный реванш / Grudge Match (2013) HD 1080p | Трейлер скачать через торрент бесплатно
  • Забойный реванш / Grudge Match (2013) WEBRip | Гоблин скачать через торрент бесплатно
  • Забойный реванш / Grudge Match (2013) WEBRip | Звук с TS скачать через торрент бесплатно
  • Забойный реванш / Grudge Match (2013) WEBRip | А скачать через торрент бесплатно
  • Забойный реванш / Grudge Match (2013) WEBRip 720p | А скачать через торрент бесплатно
  • Забойный реванш / Grudge Match (2013) WEBRip 720p | Звук с TS торрент скачать бесплатно
  • Забойный реванш / Grudge Match (2013) WEBRip 720p *PROPER* скачать через торрент бесплатно


    • Комментарии (0):

      Информация

      Информация

        Посетители, находящиеся в группе Гости, не могут оставлять комментарии в данной новости.

        ↓ Меню



        ↓ Опрос

        А Вы добавили сайт в закладки?
        Да
        Не


        Top 10 за неделю (Фильмы)