.
Авторизация | Регистрация




Физрук (2014) WEBRip торрент скачать бесплатно

Опубликовал: Админ | Дата: 27-02-2015, 11:10 | Просмотров: 417

Детально о кино
Русское название: Физрук
Создали в: 2014
Категория жанра: Комедия
Главный режиссеры: Фёдор Стуков, Сергей Сенцов
Актеры: Дмитрий Нагиев, Евгений Кулаков, Юрий Устюгов, Егор Пежемский, Валентин Юнин


Сюжет:
Сериал расскажет о начальнике охраны крупного бизнесмена, которого хозяин увольняет за устаревшие методы работы, приобретенные главным героем во время бурного бандитского прошлого. Новоиспеченный безработный и бывший начальник охраны устраивается физруком в школу, где учится сын его бывшего босса, в надежде наладить с ним отношения и вернуться на прежнюю работу.








Тех. данные


Время просмотра: 01 ~00:25:00
Снималось в: Россия, ТНТ
Перевод текста: Не требуется


Файл
Тип видео: AVI
Качество фильма: WEBRip
Информация о видео: Xvid, 720x352, ~1 559 Kbps
Информация о звуке: MP3, 128 Kbps
MI

General
Format : AVI
Format/Info : Audio Video Interleave
File size : 7.96 MiB
Duration : 39s 680ms
Overall bit rate : 1 683 Kbps

Video
ID : 0
Format : MPEG-4 Visual
Format profile : Advanced Simple@L5
Format settings, BVOP : 2
Format settings, QPel : No
Format settings, GMC : No warppoints
Format settings, Matrix : Default (H.263)
Muxing mode : Packed bitstream
Codec ID : XVID
Codec ID/Hint : XviD
Duration : 39s 320ms
Bit rate : 1 559 Kbps
Width : 720 pixels
Height : 352 pixels
Display aspect ratio : 2.045
Frame rate : 25.000 fps
Color space : YUV
Chroma subsampling : 4:2:0
Bit depth : 8 bits
Scan type : Progressive
Compression mode : Lossy
Bits/(Pixel*Frame) : 0.246
Stream size : 7.31 MiB (92%)
Writing library : XviD 64

Audio
ID : 1
Format : MPEG Audio
Format version : Version 1
Format profile : Layer 3
Mode : Joint stereo
Mode extension : MS Stereo
Codec ID : 55
Codec ID/Hint : MP3
Duration : 39s 680ms
Bit rate mode : Constant
Bit rate : 128 Kbps
Channel(s) : 2 channels
Sampling rate : 48.0 KHz
Compression mode : Lossy
Delay relative to video : 12ms
Stream size : 620 KiB (8%)
Alignment : Split accross interleaves
Interleave, duration : 40 ms (0.99 video frame)
Скриншоты для ознакомления



Размер скачиваемого торрента: 315.33 MB (330649600 Bytes)

Физрук (2014) WEBRip торрент скачать бесплатно
загрузка...
Рейтинг →
 (голосов: 1, оценка 4/5, голосовать можно 1 раз )

Другие торренты по теме:

  • Физрук (2014) WEB-DLRip от MegaPeer скачать через торрент бесплатно
  • Физрук (2014) WEB-DL 720p от MegaPeer скачать через торрент бесплатно
  • Физрук (2014) DVB скачать через торрент бесплатно
  • Физрук (2014) SATRip скачать через торрент бесплатно
  • Физрук (2014) WEB-DLRip-AVC от MediaClub скачать через торрент бесплатно
  • Физрук (2014) WEB-DLRip от New-Team скачать через торрент бесплатно
  • OST - Физрук (2014) MP3 скачать через торрент бесплатно
  • Физрук (2014) WEB-DLRip от MediaClub | КПК скачать через торрент бесплатно


    • Комментарии (0):

      Информация

      Информация

        Посетители, находящиеся в группе Гости, не могут оставлять комментарии в данной новости.

        ↓ Меню



        ↓ Опрос

        А Вы добавили сайт в закладки?
        Да
        Не


        Top 10 за неделю (Фильмы)