.
Авторизация | Регистрация
Хочешь лучшие торренты? Добавь свой email!
Добавить
» » Ведьмы из Сугаррамурди / Las brujas de Zugarramurdi (2013) BDRip 720p | Лицензия скачать через торрент бесплатно




    Ведьмы из Сугаррамурди / Las brujas de Zugarramurdi (2013) BDRip 720p | Лицензия скачать через торрент бесплатно

    Опубликовал: Админ | Дата: 27-02-2015, 11:10 | Просмотров: 183



    Детально о кино
    Русское название: Ведьмы из Сугаррамурди
    Русское название в мировом прокате: Las brujas de Zugarramurdi
    Категория жанра: Комедия, Ужасы, Драма
    Создали в: 2013
    Главный режиссер: Алекс де ла Иглесиа / Alex de la Iglesia
    Актеры: Марио Касас, Уго Силва, Хавьер Ботет, Сантьяго Сегура, Каролина Банг, Кармен Маура, Карлос Аресес, Секун де ла Роса, Макарена Гомес, Пепон Ниэто

    Сюжет фильма: Трое незадачливых воришек попадают в заколдованный город, где на протяжении веков правят бал коварные ведьмы. Задача героев проста - унести ноги из страшного места. Для этого надо постараться не влюбиться в обитательниц этого гиблого места… Сюжет основан на подлинной истории, которая случилась здесь в начале XVII века, когда одна из жительниц деревни заявила, что она ведьма и регулярно участвует в шабашах в близлежащих пещерах со своими соседками. Тогда Святая Инквизиция арестовала почти всё население Сугаррамурди и окрестных сёл (около 300 человек), устроив суд по делу Ведьминской деревни, который длился два года. В результате в 1610 году 40 жителей деревни были обвинены в колдовстве, а 11 из них - сожжены на костре. С тех пор Сугаррамурди запечатлелся в коллективной памяти как обиталище ведьм.



    Снималось в: Испания, Франция
    Время просмотра: 01:54:03
    Перевод текста: Профессиональный (полное дублирование)

    Файл
    Качество фильма: BDRip 720p
    Тип видео: MKV
    Информация о видео: MPEG4/AVC, 1280x542 (2.35:1), 23.976 кадра/сек, 4655 Кбит/сек
    Информация о звуке 1: AC3, 48,0 КГц, 384 Кбит/сек (6 каналов)
    Информация о звуке 2: AC3, 48,0 КГц, 640 Кбит/сек (6 каналов)
    Субтитры: Русские, испанские
    Навигация по главам: Есть
    Информация о видеоряд: PublicHD

    MediaInfo:
    Общее
    Уникальный идентификатор : 214428302189889636342227963795640374290 (0xA151638920DAA28E9EE9D80EDAE35412)
    Полное имя : Witching And Bitching. (2013) BDRip 720p.mkv
    Формат : Matroska
    Версия формата : Version 2
    Размер файла : 4,61 Гбайт
    Продолжительность : 1 ч. 54 м.
    Общий поток : 5791 Кбит/сек
    Дата кодирования : UTC 2014-03-24 19:46:26
    Программа кодирования : mkvmerge v5.8.0 (;No Sleep / Pillow;) built on Sep 2 2012 15:37:04
    Библиотека кодирования : libebml v1.2.3 libmatroska v1.3.0

    Видео
    Идентификатор : 1
    Формат : AVC
    Формат/Информация : Advanced Video Codec
    Профиль формата : High@L4.1
    Параметр CABAC формата : Да
    Параметр ReFrames формата : 5 кадров
    Идентификатор кодека : V_MPEG4/ISO/AVC
    Продолжительность : 1 ч. 54 м.
    Битрейт : 4652 Кбит/сек
    Ширина : 1280 пикселей
    Высота : 542 пикселя
    Соотношение сторон : 2,35:1
    Режим частоты кадров : Постоянный
    Частота кадров : 23,976 кадра/сек
    Цветовое пространство : YUV
    Субдискретизация насыщенности : 4:2:0
    Битовая глубина : 8 бит
    Тип развёртки : Прогрессивная
    Бит/(Пиксели*Кадры) : 0.280
    Размер потока : 3,71 Гбайт (80%)
    Язык : English
    Default : Да
    Forced : Нет

    Аудио #1
    Идентификатор : 2
    Формат : AC-3
    Формат/Информация : Audio Coding 3
    Расширение режима : CM (complete main)
    Параметр Endianness формата : Big
    Идентификатор кодека : A_AC3
    Продолжительность : 1 ч. 54 м.
    Вид битрейта : Постоянный
    Битрейт : 384 Кбит/сек
    Каналы : 6 каналов
    Расположение каналов : Front: L C R, Side: L R, LFE
    Частота : 48,0 КГц
    Битовая глубина : 16 бит
    Метод сжатия : С потерями
    Размер потока : 313 Мбайт (7%)
    Заголовок : Rus | AC3 | 384 Kbps
    Язык : Russian
    Default : Да
    Forced : Нет

    Аудио #2
    Идентификатор : 3
    Формат : AC-3
    Формат/Информация : Audio Coding 3
    Расширение режима : CM (complete main)
    Параметр Endianness формата : Big
    Идентификатор кодека : A_AC3
    Продолжительность : 1 ч. 54 м.
    Вид битрейта : Постоянный
    Битрейт : 640 Кбит/сек
    Каналы : 6 каналов
    Расположение каналов : Front: L C R, Side: L R, LFE
    Частота : 48,0 КГц
    Битовая глубина : 16 бит
    Метод сжатия : С потерями
    Размер потока : 522 Мбайт (11%)
    Заголовок : Spa | AC3 | 640 Kbps
    Язык : Spanish
    Default : Нет
    Forced : Нет

    Текст #1
    Идентификатор : 4
    Формат : UTF-8
    Идентификатор кодека : S_TEXT/UTF8
    Идентификатор кодека/Информация : UTF-8 Plain Text
    Язык : Russian
    Default : Нет
    Forced : Нет

    Текст #2
    Идентификатор : 5
    Формат : UTF-8
    Идентификатор кодека : S_TEXT/UTF8
    Идентификатор кодека/Информация : UTF-8 Plain Text
    Язык : Spanish
    Default : Нет
    Forced : Нет

    Меню
    00:00:00.000 : en:00:00:00.000
    00:05:18.401 : en:00:05:18.401
    00:14:16.064 : en:00:14:16.064
    00:18:47.960 : en:00:18:47.960
    00:23:34.872 : en:00:23:34.872
    00:30:42.007 : en:00:30:42.007
    00:34:54.134 : en:00:34:54.134
    00:42:24.792 : en:00:42:24.792
    00:49:37.308 : en:00:49:37.308
    00:55:15.312 : en:00:55:15.312
    00:59:06.501 : en:00:59:06.501
    01:06:33.239 : en:01:06:33.239
    01:09:32.293 : en:01:09:32.293
    01:14:56.534 : en:01:14:56.534
    01:20:45.257 : en:01:20:45.257
    01:25:12.733 : en:01:25:12.733
    01:31:20.809 : en:01:31:20.809
    01:35:17.712 : en:01:35:17.712
    01:46:46.734 : en:01:46:46.734
    01:49:21.054 : en:01:49:21.054

    Скриншоты для ознакомления:


    Релиз подготовил:
    Размер скачиваемого торрента: 4.61 GB (4954081376 Bytes)

    Ведьмы из Сугаррамурди / Las brujas de Zugarramurdi (2013) BDRip 720p | Лицензия скачать через торрент бесплатно
    загрузка...
    Рейтинг →
     (голосов: 1, оценка 3/5, голосовать можно 1 раз )

    Другие торренты по теме:



      Комментарии (0):

      Информация

      Информация

        Посетители, находящиеся в группе Гости, не могут оставлять комментарии в данной новости.

        ↓ Меню



        ↓ Опрос

        А Вы добавили сайт в закладки?
        Да
        Не


        Top 10 за месяц (Фильмы)