.
Авторизация | Регистрация
» » Одним меньше / Dead Man Down (2013) BDRemux 1080p скачать через торрент бесплатно




    Одним меньше / Dead Man Down (2013) BDRemux 1080p скачать через торрент бесплатно

    Опубликовал: Админ | Дата: 27-02-2015, 11:10 | Просмотров: 232


    Детально о кино
    Русское название: Одним меньше / Dead Man Down
    Создали в: 2014
    Категория жанра: Боевик, Триллер, Криминал
    Главный режиссер: Нильс Арден Оплев
    Актеры: Колин Фаррелл, Нуми Рапас, Доминик Купер, Терренс Ховард, Изабель Юппер, Арманд Ассанте, Ро Лейба, Дженнифер Винер, Рэймонд Мамрак, Фрэнки Джи


    Сюжет:
    История человека по имени Виктор, он правая рука лидера преступной группировки из Нью-Йорка. Виктор неспроста оказался в криминальном синдикате: мафия уничтожила его семью, поэтому он хочет отомстить. Об этом узнает загадочная Беатрис, соблазняет его и шантажирует. Однако у героев только одна цель в жизни — месть. И она приведет их к кровавой развязке.







    Кстати:



    - Стью Беннетт выступает в качестве профессионального рестлера под именем Уэйд Барретт. World Wrestling Entertainment (WWE) является одним из продюсеров этого фильма.
    Тех. данные


    Время просмотра: 01:57:46
    Снималось в: США, Automatik Entertainment, Frequency Films, IM Global, Original Film, WWE Studios
    Перевод текста: Дублированный Лицензия, Авторский одноголосый (Ю. Гаврилов)
    Субтитры: Вшитые (отключаемые)
    Язык субтитров: Русские, английские, румынские


    Файл
    Тип видео: MKV
    Качество фильма: BDRemux 1080p
    Информация о видео: MPEG-4 AVC/H.264, ~24930 Кбит/с, 1920x1080
    Информация о звуке: Аудио 1: Русский AC3, 6 ch, 256 Кбит/с | Дублированный, Аудио 2: Русский DTS-HD MA, 6 ch, 3289 Кбит/с | Ю. Гаврилов, Аудио 3: Английский DTS, 6 ch, 1510 Кбит/с | Оригинал
    MI:

    General
    Complete name : O:Dead.Man.Down.(2013).BDRemux.1080p.mkv
    Format : Matroska
    File size : 24.7 GiB
    Duration : 1h 57mn
    Overall bit rate : 30.0 Mbps
    Encoded date : UTC 2013-09-07 11:04:13
    Writing application : mkvmerge v6.3.0 (;You can;t stop me!;) built on Jun 28 2013 20:09:41
    Writing library : libebml v1.3.0 libmatroska v1.4.0

    Video
    ID : 1
    Format : AVC
    Format/Info : Advanced Video Codec
    Format profile : High@L4.1
    Format settings, CABAC : Yes
    Format settings, ReFrames : 2 frames
    Muxing mode : Container profile=Unknown@4.1
    Codec ID : V_MPEG4/ISO/AVC
    Duration : 1h 57mn
    Width : 1 920 pixels
    Height : 1 080 pixels
    Display aspect ratio : 16:9
    Frame rate : 23.976 fps
    Resolution : 8 bits
    Colorimetry : 4:2:0
    Scan type : Progressive
    Title : Одним.меньше-Dead.Man.Down.(2013).BDRemux.1080p

    Audio #1
    ID : 2
    Format : AC-3
    Format/Info : Audio Coding 3
    Codec ID : A_AC3
    Duration : 1h 57mn
    Bit rate mode : Constant
    Bit rate : 256 Kbps
    Channel(s) : 6 channels
    Channel positions : Front: L C R, Surround: L R, LFE
    Sampling rate : 48.0 KHz
    Stream size : 216 MiB (1%)
    Language : Russian

    Audio #2
    ID : 3
    Format : DTS
    Format/Info : Digital Theater Systems
    Format profile : MA
    Codec ID : A_DTS
    Duration : 1h 57mn
    Bit rate mode : Variable
    Channel(s) : 6 channels
    Channel positions : Front: L C R, Surround: L R, LFE
    Sampling rate : 48.0 KHz
    Resolution : 24 bits
    Language : Russian

    Audio #3
    ID : 4
    Format : DTS
    Format/Info : Digital Theater Systems
    Codec ID : A_DTS
    Duration : 1h 57mn
    Bit rate mode : Constant
    Bit rate : 1 510 Kbps
    Channel(s) : 6 channels
    Channel positions : Front: L C R, Surround: L R, LFE
    Sampling rate : 48.0 KHz
    Resolution : 24 bits
    Stream size : 1.24 GiB (5%)

    Text #1
    ID : 5
    Format : UTF-8
    Codec ID : S_TEXT/UTF8
    Codec ID/Info : UTF-8 Plain Text
    Language : Russian

    Text #2
    ID : 6
    Format : UTF-8
    Codec ID : S_TEXT/UTF8
    Codec ID/Info : UTF-8 Plain Text
    Language : Romanian

    Text #3
    ID : 7
    Format : UTF-8
    Codec ID : S_TEXT/UTF8
    Codec ID/Info : UTF-8 Plain Text

    Menu
    00:00:00.000 : en:Chapter 1
    00:11:40.950 : en:Chapter 2
    00:16:48.590 : en:Chapter 3
    00:25:18.642 : en:Chapter 4
    00:30:38.628 : en:Chapter 5
    00:36:37.778 : en:Chapter 6
    00:41:19.810 : en:Chapter 7
    00:46:36.668 : en:Chapter 8
    00:55:52.515 : en:Chapter 9
    01:03:13.206 : en:Chapter 10
    01:12:09.033 : en:Chapter 11
    01:18:25.033 : en:Chapter 12
    01:24:07.042 : en:Chapter 13
    01:31:35.865 : en:Chapter 14
    01:36:36.165 : en:Chapter 15
    01:42:52.416 : en:Chapter 16
    Скриншоты для ознакомления





    Размер скачиваемого торрента: 24.67 GB (26490960782 Bytes)

    Одним меньше / Dead Man Down (2013) BDRemux 1080p скачать через торрент бесплатно
    загрузка...
    Рейтинг →
     (голосов: 1, оценка 5/5, голосовать можно 1 раз )

    Другие торренты по теме:



      Комментарии (0):

      Информация

      Информация

        Посетители, находящиеся в группе Гости, не могут оставлять комментарии в данной новости.

        ↓ Меню



        ↓ Опрос

        А Вы добавили сайт в закладки?
        Да
        Не


        Top 10 за неделю (Фильмы)