.
Авторизация | Регистрация
» » В страхе / In Fear (2013) HDRip | L1 скачать через торрент бесплатно




    В страхе / In Fear (2013) HDRip | L1 скачать через торрент бесплатно

    Опубликовал: Админ | Дата: 27-02-2015, 11:10 | Просмотров: 233



    Детально о кино
    Русское название: В страхе
    Русское название в мировом прокате: In Fear
    Создали в: 2013
    Категория жанра: триллер
    Главный режиссер: Джереми Лавринг
    Актеры: Йен де Кестекер, Элис Энглерт, Аллен Лич

    Сюжет фильма:
    Застигнутый ночью в пути, замученный и потерянный, ты невольно даешь волю своим вечным страхам. Ведь в темноте таятся неведомые опасности. Но главный вызов — не дать соблазну и злу проникнуть в душу. Или, возможно, оно уже там. Том и Люси, недавно познакомились, и решили поехать загород на музыкальный фестиваль. Но не найдя отель, в котором забронировали номер, они заблудились в чаще леса, батарейки в навигаторе и телефоне сели и вот уже глубокой холодной ночью они слишком поздно поняли — из леса за ними кто-то наблюдает и хочет убить.



    Снималось в: Великобритания
    Время просмотра: 01:24:53
    Перевод текста: Любительское (одноголосое) ХиХиДок

    Файл
    Кодек для видео: Xvid
    Качество фильма: HDRip Рипс BDRip 720p
    Информация о видео: 2 079 Kbps, 720x306
    Информация о звуке: MP3, 192 kb/s (2 ch)

    Скриншоты для ознакомления






    MediaInfo
    General
    Complete name : E:FilmsIn.Fear.2013.HDRip.avi
    Format : AVI
    Format/Info : Audio Video Interleave
    File size : 1.35 GiB
    Duration : 1h 24mn
    Overall bit rate : 2 280 Kbps
    Writing library : VirtualDub build 35491/release

    Video
    ID : 0
    Format : MPEG-4 Visual
    Format profile : Advanced Simple@L5
    Format settings, BVOP : 2
    Format settings, QPel : No
    Format settings, GMC : No warppoints
    Format settings, Matrix : Default (H.263)
    Muxing mode : Packed bitstream
    Codec ID : XVID
    Codec ID/Hint : XviD
    Duration : 1h 24mn
    Bit rate : 2 079 Kbps
    Width : 720 pixels
    Height : 306 pixels
    Display aspect ratio : 2.35:1
    Frame rate : 23.976 fps
    Color space : YUV
    Chroma subsampling : 4:2:0
    Bit depth : 8 bits
    Scan type : Progressive
    Compression mode : Lossy
    Bits/(Pixel*Frame) : 0.394
    Stream size : 1.23 GiB (91%)
    Writing library : XviD 64

    Audio
    ID : 1
    Format : MPEG Audio
    Format version : Version 1
    Format profile : Layer 3
    Mode : Joint stereo
    Codec ID : 55
    Codec ID/Hint : MP3
    Duration : 1h 24mn
    Bit rate mode : Constant
    Bit rate : 192 Kbps
    Channel(s) : 2 channels
    Sampling rate : 44.1 KHz
    Compression mode : Lossy
    Stream size : 116 MiB (8%)
    Alignment : Split accross interleaves
    Interleave, duration : 42 ms (1.00 video frame)
    Interleave, preload duration : 500 ms

    Залил: reri
    Размер скачиваемого торрента: 1.35 GB (1451906796 Bytes)

    В страхе / In Fear (2013) HDRip | L1 скачать через торрент бесплатно
    загрузка...
    Рейтинг →
     (голосов: 1, оценка 3/5, голосовать можно 1 раз )

    Другие торренты по теме:

  • Страх / Fear (1996) BDRip от HQCLUB торрент скачать бесплатно
  • Первобытный страх / Primal Fear (1996) HDRip от Scarabey | Р торрент скачать бесплатно
  • Страх воды / La peur de leau (2011) DVDRip | L2 торрент скачать бесплатно
  • Фактор страха / Fear Factor (2001) IPTVRip торрент скачать бесплатно
  • Дети кукурузы 5: Поля страха / Children of the Corn V: Fields of Terror (1998) DVDRip торрент скачать бесплатно
  • Невероятный страх перед всем / A Fantastic Fear of Everything (2012) HDRip | L1 торрент скачать бесплатно
  • Озеро страха 4: Последняя глава / Lake Placid: The Final Chapter (2012) DVDRip | L1 торрент скачать бесплатно
  • Страх в ночи / Fear in the Night (1972) DVDRip-AVC от Oneinchnales | L1 торрент скачать бесплатно


    • Комментарии (0):

      Информация

      Информация

        Посетители, находящиеся в группе Гости, не могут оставлять комментарии в данной новости.

        ↓ Меню



        ↓ Опрос

        А Вы добавили сайт в закладки?
        Да
        Не


        Top 10 за неделю (Фильмы)