.
Авторизация | Регистрация
Хочешь лучшие торренты? Добавь свой email!
Добавить
» » Огонь на поражение / Shoot to Kill (1988) DVDRip от NovaLan скачать через торрент бесплатно




    Огонь на поражение / Shoot to Kill (1988) DVDRip от NovaLan скачать через торрент бесплатно

    Опубликовал: Админ | Дата: 27-02-2015, 11:10 | Просмотров: 231



    Снималось в: США
    Создали в: Touchstone Pictures, Silver Screen Partners III, Century Park Pictures
    Категория жанра: Триллер
    Создали в: 1988
    Время просмотра: 01:49:39
    Перевод текста: Дублированный, профессиональный двухголосый, авторский
    Оригинальная аудиодорожка: Английская
    Главный режиссер: Роджер Споттисвуд
    Актеры: Том Беренджер, Сидни Пуатье, Кёрсти Элли, Клэнси Браун, Ричард Мэсур, Эндрю Робинсон, Кевин Сканнелл, Фредерик Коффин, Майкл МакРэй, Роберт Лессер, Милтон Селзер, Уолтер Марш, Фрэнк Ч. Тёрнер, Сэм Хайона, Майкл Чэпмен

    Сюжет: Хозяин ювелирного магазина среди ночи в панике забирает бриллианты с неизвестной целью. Приехавшая на место ограбления полиция выясняет, что ювелир должен немедленно отдать драгоценности грабителю, захватившему его жену в заложники. Женщину спасти не удалось, да и преступнику удается уйти от агента ФБР Уоррена Стентина. Ниточка приводит его в леса в Северной Америке…



    Исходник: DVD9 R2
    Тип релиза: DVDRip
    Контейнер: AVI
    Информация о видео: XviD, 1662 Кбит/с, 704х304
    Информация о звуке: Русский, английский (АС3, 2 ch, 192 Кбит/с)

    Семпл

    Перевод

    1. Дублированный
    2. Профессиональный двухголосый
    3. Володарский
    4. Гаврилов
    5. Михалев
    6. Английский
    MediaInfo
    Общее
    Полное имя : D:1АААОгонь на поражение.avi
    Формат : AVI
    Формат/Информация : Audio Video Interleave
    Профиль формата : OpenDML
    Размер файла : 2,19 Гбайт
    Продолжительность : 1 ч. 49 м.
    Общий поток : 2856 Кбит/сек
    Программа кодирования : VirtualDubMod 1.5.10.2 (build 2540/release)
    Библиотека кодирования : VirtualDubMod build 2540/release

    Видео
    Идентификатор : 0
    Формат : MPEG-4 Visual
    Профиль формата : Advanced Simple@L5
    Параметр BVOP формата : 2
    Параметр QPel формата : Нет
    Параметр GMC формата : Без точки перехода
    Параметр матрицы формата : Default (MPEG)
    Идентификатор кодека : XVID
    Идентификатор кодека/Подсказка : XviD
    Продолжительность : 1 ч. 49 м.
    Битрейт : 1662 Кбит/сек
    Ширина : 704 пикселя
    Высота : 304 пикселя
    Соотношение сторон : 2,35:1
    Частота кадров : 23,976 кадра/сек
    Цветовое пространство : YUV
    Субдискретизация насыщенности : 4:2:0
    Битовая глубина : 8 бит
    Тип развёртки : Прогрессивная
    Метод сжатия : С потерями
    Бит/(Пиксели*Кадры) : 0.324
    Размер потока : 1,27 Гбайт (58%)
    Библиотека кодирования : XviD 1.2.1 (UTC 2008-12-04)

    Аудио #1
    Идентификатор : 1
    Формат : AC-3
    Формат/Информация : Audio Coding 3
    Расширение режима : CM (complete main)
    Параметр Endianness формата : Big
    Идентификатор кодека : 2000
    Продолжительность : 1 ч. 49 м.
    Вид битрейта : Постоянный
    Битрейт : 192 Кбит/сек
    Каналы : 2 канала
    Расположение каналов : Front: L R
    Частота : 48,0 КГц
    Битовая глубина : 16 бит
    Метод сжатия : С потерями
    Задержка видео : 2 с. 0 мс.
    Размер потока : 151 Мбайт (7%)
    Выравнивание : Разделение по промежуткам
    Продолжительность промежутка : 42 мс. (1,00 видеокадр)
    Время предзагрузки промежутка : 500 мс.

    Аудио #2
    Идентификатор : 2
    Формат : AC-3
    Формат/Информация : Audio Coding 3
    Расширение режима : CM (complete main)
    Параметр Endianness формата : Big
    Идентификатор кодека : 2000
    Продолжительность : 1 ч. 49 м.
    Вид битрейта : Постоянный
    Битрейт : 192 Кбит/сек
    Каналы : 2 канала
    Расположение каналов : Front: L R
    Частота : 48,0 КГц
    Битовая глубина : 16 бит
    Метод сжатия : С потерями
    Задержка видео : 2 с. 0 мс.
    Размер потока : 151 Мбайт (7%)
    Выравнивание : Разделение по промежуткам
    Продолжительность промежутка : 42 мс. (1,00 видеокадр)
    Время предзагрузки промежутка : 500 мс.

    Аудио #3
    Идентификатор : 3
    Формат : AC-3
    Формат/Информация : Audio Coding 3
    Расширение режима : CM (complete main)
    Параметр Endianness формата : Big
    Идентификатор кодека : 2000
    Продолжительность : 1 ч. 49 м.
    Вид битрейта : Постоянный
    Битрейт : 192 Кбит/сек
    Каналы : 2 канала
    Расположение каналов : Front: L R
    Частота : 48,0 КГц
    Битовая глубина : 16 бит
    Метод сжатия : С потерями
    Задержка видео : 1 с. 700 мс.
    Размер потока : 151 Мбайт (7%)
    Выравнивание : Разделение по промежуткам
    Продолжительность промежутка : 42 мс. (1,00 видеокадр)
    Время предзагрузки промежутка : 500 мс.

    Аудио #4
    Идентификатор : 4
    Формат : AC-3
    Формат/Информация : Audio Coding 3
    Расширение режима : CM (complete main)
    Параметр Endianness формата : Big
    Идентификатор кодека : 2000
    Продолжительность : 1 ч. 49 м.
    Вид битрейта : Постоянный
    Битрейт : 192 Кбит/сек
    Каналы : 2 канала
    Расположение каналов : Front: L R
    Частота : 48,0 КГц
    Битовая глубина : 16 бит
    Метод сжатия : С потерями
    Задержка видео : 2 с. 500 мс.
    Размер потока : 151 Мбайт (7%)
    Выравнивание : Разделение по промежуткам
    Продолжительность промежутка : 42 мс. (1,00 видеокадр)
    Время предзагрузки промежутка : 500 мс.

    Аудио #5
    Идентификатор : 5
    Формат : AC-3
    Формат/Информация : Audio Coding 3
    Расширение режима : CM (complete main)
    Параметр Endianness формата : Big
    Идентификатор кодека : 2000
    Продолжительность : 1 ч. 49 м.
    Вид битрейта : Постоянный
    Битрейт : 192 Кбит/сек
    Каналы : 2 канала
    Расположение каналов : Front: L R
    Частота : 48,0 КГц
    Битовая глубина : 16 бит
    Метод сжатия : С потерями
    Задержка видео : 2 с. 0 мс.
    Размер потока : 151 Мбайт (7%)
    Выравнивание : Разделение по промежуткам
    Продолжительность промежутка : 42 мс. (1,00 видеокадр)
    Время предзагрузки промежутка : 500 мс.

    Аудио #6
    Идентификатор : 6
    Формат : AC-3
    Формат/Информация : Audio Coding 3
    Расширение режима : CM (complete main)
    Параметр Endianness формата : Big
    Идентификатор кодека : 2000
    Продолжительность : 1 ч. 49 м.
    Вид битрейта : Постоянный
    Битрейт : 192 Кбит/сек
    Каналы : 2 канала
    Расположение каналов : Front: L R
    Частота : 48,0 КГц
    Битовая глубина : 16 бит
    Метод сжатия : С потерями
    Задержка видео : 2 с. 0 мс.
    Размер потока : 151 Мбайт (7%)
    Выравнивание : Разделение по промежуткам
    Продолжительность промежутка : 42 мс. (1,00 видеокадр)
    Время предзагрузки промежутка : 500 мс.
    Скриншоты для ознакомления


    Релиз группа:
    Автор рипа:
    Залил: YArl
    Размер скачиваемого торрента: 2.19 GB (2348902400 Bytes)

    Огонь на поражение / Shoot to Kill (1988) DVDRip от NovaLan скачать через торрент бесплатно
    загрузка...
    Рейтинг →
     (голосов: 1, оценка 4/5, голосовать можно 1 раз )

    Другие торренты по теме:

  • Огонь на поражение (Стреляй на поражение) / Shoot to Kill (Deadly Pursuit) / 1988 / АП (Живов) / HDTVRip
  • Спецназ. Огонь на поражение / Special Forces - Nemesis Strike (2005) PC by MassTorr
  • Огонь на поражение / Shoot to Kill (1988) HDTVRip от New-Team
  • Огонь на поражение / Shoot to Kill (1988) HDTVRip-AVC от New-Team скачать через торрент бесплатно
  • Огонь на поражение / Shoot to Kill (1988) HDTVRip-AVC | D, 2хА от New-Team скачать через торрент бесплатно
  • Вызываем огонь на себя (1-4 серии из 4) / 1963 / РУ / DVDRip
  • Огонь на поражение / Shoot to Kill (1988) HDTVRip от New-Team
  • Огонь на поражение / Shoot to Kill (1988) HDTVRip-AVC от New-Team


    • Комментарии (0):

      Информация

      Информация

        Посетители, находящиеся в группе Гости, не могут оставлять комментарии в данной новости.

        ↓ Меню



        ↓ Опрос

        А Вы добавили сайт в закладки?
        Да
        Не


        Top 10 за месяц (Фильмы)