.
Авторизация | Регистрация
» » Гелий / Helium (2014) WEB-DLRip 720p | L1 скачать через торрент бесплатно




    Гелий / Helium (2014) WEB-DLRip 720p | L1 скачать через торрент бесплатно

    Опубликовал: Админ | Дата: 27-02-2015, 11:10 | Просмотров: 209


    Детально о кино
    Русское название: Гелий / Helium
    Создали в: 2014
    Категория жанра: Короткометражный, драма, семейный
    Главный режиссер: Андерс Вальтер Хансен
    Актеры: Каспер Крамп, Марьяна Янкович, Пелле Фальк Красбек


    Сюжет:
    Фильм рассказывает историю юного мальчишки Альфреда. Мальчик очень тяжело болен, он вынужден постоянно лежать на больничной койке. Состояние здоровья мальчишки ухудшается, но врачи попросту не знают как помочь парнишке. К мальчику каждый вечер заходит вахтёр больницы Энцо, рассказывая Альфреду истории о сказочном мире Гелий. Паренёк каждый раз, слушая рассказы, переносится в мир сказки, где не страшны болезни, где покой и тишина. Благодаря историям мальчик вновь чувствует себя счастливым.





    Награды:

    Оскар, 2014 год
    Победитель (1):
    Лучший короткометражный игровой фильм
    Тех. данные


    Время просмотра: 00:21:54
    Снималось в: Дания, MM Productions
    Перевод текста: Любительский одноголосый


    Файл
    Тип видео: MKV
    Качество фильма: WEB-DLRip 720p
    Информация о видео: MPEG-4 AVC, 1941 Кбит/с, 1280х544
    Информация о звуке: MP3, 2 ch, 320 Кбит/с
    MI:

    General
    Unique ID : 212336031957579493924873524664350559587 (0x9FBE6EA618F5DDA98C4F5F6BEB384D63)
    Complete name : D:-=ВИДЕО=-Зарубежные2014 Helium.mkv
    Format : Matroska
    Format version : Version 2
    File size : 361 MiB
    Duration : 21mn 54s
    Overall bit rate : 2 306 Kbps
    Encoded date : UTC 2014-03-07 06:42:02
    Writing application : mkvmerge v3.0.0 (;Hang up your Hang-Ups;) built on Dec 12 2009 15:20:35
    Writing library : libebml v0.7.9 libmatroska v0.8.1

    Video
    ID : 1
    Format : AVC
    Format/Info : Advanced Video Codec
    Format profile : Main@L5.1
    Format settings, CABAC : Yes
    Format settings, ReFrames : 2 frames
    Codec ID : V_MPEG4/ISO/AVC
    Duration : 21mn 54s
    Bit rate : 1 941 Kbps
    Width : 1 280 pixels
    Height : 544 pixels
    Display aspect ratio : 2.35:1
    Frame rate mode : Constant
    Frame rate : 25.000 fps
    Color space : YUV
    Chroma subsampling : 4:2:0
    Bit depth : 8 bits
    Scan type : Progressive
    Bits/(Pixel*Frame) : 0.111
    Stream size : 304 MiB (84%)
    Default : Yes
    Forced : No

    Audio
    ID : 2
    Format : MPEG Audio
    Format version : Version 1
    Format profile : Layer 3
    Codec ID : A_MPEG/L3
    Codec ID/Hint : MP3
    Duration : 21mn 54s
    Bit rate mode : Constant
    Bit rate : 320 Kbps
    Channel(s) : 2 channels
    Sampling rate : 44.1 KHz
    Compression mode : Lossy
    Stream size : 50.1 MiB (14%)
    Default : Yes
    Forced : No
    Скриншоты для ознакомления



    Размер скачиваемого торрента: 361.31 MB (378856816 Bytes)

    Гелий / Helium (2014) WEB-DLRip 720p | L1 скачать через торрент бесплатно
    загрузка...
    Рейтинг →
     (голосов: 1, оценка 4/5, голосовать можно 1 раз )

    Другие торренты по теме:

  • Даниил Мордовцев - Сидение раскольников в Соловках / Историческая проза / 2008 / Гелена Ивлиева / MP3 скачать торрент бесплатно


    • Комментарии (0):

      Информация

      Информация

        Посетители, находящиеся в группе Гости, не могут оставлять комментарии в данной новости.

        ↓ Меню



        ↓ Опрос

        А Вы добавили сайт в закладки?
        Да
        Не


        Top 10 за неделю (Фильмы)