.
Авторизация | Регистрация
» » Я влюбился в монашку / Im in Love with a Church Girl (2013) BDRemux 1080p от NovaLan скачать через торрент бесплатно




    Я влюбился в монашку / Im in Love with a Church Girl (2013) BDRemux 1080p от NovaLan скачать через торрент бесплатно

    Опубликовал: Админ | Дата: 27-02-2015, 11:10 | Просмотров: 196



    Русское название: Я влюбился в монашку
    Русское название в мировом прокате: I;m in Love with a Church Girl
    Создали в: 2013
    Категория жанра: Драма, мелодрама
    Главный режиссер: Стив Рейс
    Актеры: Джа Рул, Майкл Мэдсен, Стивен Болдуин, Эдриэнн Байлон, Винсент Пасторе, Тоби МакКихан, Мартин Коув, Занн МаКларнон, Т-Боун, Голли Молина
    Сюжет фильма:
    У Майлза есть все - машины, лодки, приятная внешность, особняк, деньги, внимание женщин. Майлз в прошлом торговал наркотиками, но теперь он отошел от противозаконных дел, хотя по-прежнему общается со старыми друзьями. Стараясь быть правильным и не нарушать закон, Майлз знакомится с девушкой своей мечты, но она совершенна не похожа на всех девушек, с которыми он встречался раньше…


    Снималось в: США, Reverence Gospel Media, High Top Releasing
    Время просмотра: 01:58:33
    Перевод текста: Любительский одноголосый (Barin101)

    Кодек для видео: H.264
    Качество фильма: Blu-Ray Remux 1080p
    Информация о видео: MPEG-4 AVC, 27993 Кбит/с, 1920x1080, 23.976 кадр/с
    Информация о звуке: Русский (AC3, 2 ch, 192 Кбит/с), английский (DTS-HD MA, 6 ch, 4013 Кбит/с)
    Субтитры: Английские

    Инфо-файл

    Полное имя : D:Раздачи_DI;m.in.Love.with.a.Church.Girl.2013.BDRemux.1080p.NovaLan.mkv
    Формат : Matroska
    Версия формата : Version 4 / Version 2
    Размер файла : 26,4 Гбайт
    Продолжительность : 1 ч. 58 м.
    Режим общего битрейта : Переменный
    Общий поток : 31,9 Мбит/сек
    Название фильма : I;m in Love with a Church Girl 2013 - NovaLan
    Дата кодирования : UTC 2014-03-26 18:35:36
    Программа кодирования : mkvmerge v6.8.0 (;Theme for Great Cities;) 64bit built on Mar 2 2014 21:34:26
    Библиотека кодирования : libebml v1.3.0 libmatroska v1.4.1

    Видео
    Идентификатор : 1
    Формат : AVC
    Формат/Информация : Advanced Video Codec
    Профиль формата : High@L4.1
    Параметр CABAC формата : Да
    Параметр ReFrames формата : 4 кадра
    Идентификатор кодека : V_MPEG4/ISO/AVC
    Продолжительность : 1 ч. 58 м.
    Вид битрейта : Переменный
    Битрейт : 29,6 Мбит/сек
    Максимальный битрейт : 37,0 Мбит/сек
    Ширина : 1920 пикселей
    Высота : 1080 пикселей
    Соотношение сторон : 16:9
    Частота кадров : 23,976 кадра/сек
    Цветовое пространство : YUV
    Субдискретизация насыщенности : 4:2:0
    Битовая глубина : 8 бит
    Тип развёртки : Прогрессивная
    Бит/(Пиксели*Кадры) : 0.594
    Размер потока : 24,5 Гбайт (93%)
    Заголовок : I;m in Love with a Church Girl 2013 - NovaLan
    Default : Да
    Forced : Нет

    Аудио #1
    Идентификатор : 2
    Формат : AC-3
    Формат/Информация : Audio Coding 3
    Расширение режима : CM (complete main)
    Параметр Endianness формата : Big
    Идентификатор кодека : A_AC3
    Продолжительность : 1 ч. 58 м.
    Вид битрейта : Постоянный
    Битрейт : 192 Кбит/сек
    Каналы : 2 канала
    Расположение каналов : Front: L R
    Частота : 48,0 КГц
    Битовая глубина : 16 бит
    Метод сжатия : С потерями
    Размер потока : 163 Мбайт (1%)
    Язык : Russian
    Default : Да
    Forced : Нет

    Аудио #2
    Идентификатор : 3
    Формат : DTS
    Формат/Информация : Digital Theater Systems
    Профиль формата : MA / Core
    Идентификатор кодека : A_DTS
    Продолжительность : 1 ч. 58 м.
    Вид битрейта : Переменный
    Битрейт : 1561 Кбит/сек / 1510 Кбит/сек
    Каналы : 6 каналов
    Расположение каналов : Front: L C R, Side: L R, LFE
    Частота : 48,0 КГц
    Битовая глубина : 24 бит
    Метод сжатия : Без потерь / Lossy
    Язык : English
    Default : Нет
    Forced : Нет

    Текст
    Идентификатор : 4
    Формат : PGS
    Режим смешивания : zlib
    Идентификатор кодека : S_HDMV/PGS
    Идентификатор кодека/Информация : The same subtitle format used on BDs/HD-DVDs
    Язык : English
    Default : Нет
    Forced : Нет

    Меню
    00:00:00.000 : en:Chapter 1
    00:11:55.130 : en:Chapter 2
    00:26:54.153 : en:Chapter 3
    00:40:29.592 : en:Chapter 4
    01:00:12.650 : en:Chapter 5
    01:21:00.438 : en:Chapter 6
    01:35:27.930 : en:Chapter 7
    01:51:13.416 : en:Chapter 8
    01:58:32.771 : en:Chapter 9



    Релиз группа NovaLan
    Автор сборки Sergei7721






    Релиз подготовил:


    Залил: Sergei7721
    Размер скачиваемого торрента: 26.45 GB (28398037779 Bytes)

    Я влюбился в монашку / Im in Love with a Church Girl (2013) BDRemux 1080p от NovaLan скачать через торрент бесплатно
    загрузка...
    Рейтинг →
     (голосов: 1, оценка 5/5, голосовать можно 1 раз )

    Другие торренты по теме:

  • Я влюбился в монашку / Im in Love with a Church Girl (2013) BDRip-AVC от ExKinoRay скачать через торрент бесплатно
  • Я влюбился в монашку / Im in Love with a Church Girl (2013) BDRip от ExKinoRay
  • Я влюбился в монашку / Im in Love with a Church Girl (2013) BDRip 1080p от NovaLan | L1 скачать через торрент бесплатно


    • Комментарии (0):

      Информация

      Информация

        Посетители, находящиеся в группе Гости, не могут оставлять комментарии в данной новости.

        ↓ Меню



        ↓ Опрос

        А Вы добавили сайт в закладки?
        Да
        Не


        Top 10 за месяц (Фильмы)