.
Авторизация | Регистрация
Хочешь лучшие торренты? Добавь свой email!
Добавить
» » Всё ещё возможно / Da geht noch was! (2013) HDRip | L1 скачать через торрент бесплатно




    Всё ещё возможно / Da geht noch was! (2013) HDRip | L1 скачать через торрент бесплатно

    Опубликовал: Админ | Дата: 27-02-2015, 11:10 | Просмотров: 170


    Детально о кино
    Русское название: Всё ещё возможно / Da geht noch was!
    Создали в: 2013
    Категория жанра: Драма, мелодрама, комедия
    Главный режиссер: Хольгер Хаазе
    Актеры: Флориан Давид Фиц, Хенри Хюбхен, Мариус В. Хаас, Лесли Молтон, Текла Рютен, Джэйми Бик, Феликс фон Мантейфель, Ева-Мария Кромер, Флориан Брюкнер, Махендра Мунизэми, Улла Гейджер

    Сюжет фильма:
    Из-за ворчливости своего отца Карла Конрад свёл к минимуму визиты к родителям. Тот постоянно недоволен его женой Тамарой и сыном Йонасом. На ежегодной встрече мать Конрада Хелена застаёт его врасплох неожиданными новостями. После 40 лет совместной жизни она оставила мужа и теперь просит сына навестить семейный дом. Там он застаёт заливающего горе отца за горой банок из-под пива. Когда Карл получает тяжёлую травму от падения в бассейн, Конрад вместе с сыном вынужден переехать к нему, чтобы присматривать за больным. Смогут ли ужиться вместе три поколения под одной крышей?





    Тех. данные

    Время просмотра: 01:40:43
    Снималось в: Германия, Olga Film GmbH
    Перевод текста: Одноголосый закадровый, любительский

    Файл
    Тип видео: AVI
    Качество фильма: HDRip
    Информация о видео: Xvid, ~ 1532 Кбит/сек, 720 x 304 (2.368) at 24.000 fps
    Информация о звуке: AC3 2.0, 320 Кбит/сек, 48,0 КГц
    MI:

    Полное имя : G:Da.geht.noch.was.2013.HDRip.avi
    Формат : AVI
    Формат/Информация : Audio Video Interleave
    Размер файла : 1,31 Гбайт
    Продолжительность : 1 ч. 40 м.
    Общий поток : 1861 Кбит/сек
    Программа кодирования : VirtualDubMod 1.5.10.2 (build 2542/release)
    Библиотека кодирования : VirtualDubMod build 2542/release

    Видео
    Идентификатор : 0
    Формат : MPEG-4 Visual
    Профиль формата : Advanced Simple@L5
    Параметр BVOP формата : 2
    Параметр QPel формата : Нет
    Параметр GMC формата : Без точки перехода
    Параметр матрицы формата : Default (H.263)
    Идентификатор кодека : XVID
    Идентификатор кодека/Подсказка : XviD
    Продолжительность : 1 ч. 40 м.
    Битрейт : 1532 Кбит/сек
    Ширина : 720 пикселей
    Высота : 304 пикселя
    Соотношение сторон : 2,35:1
    Частота кадров : 24,000 кадра/сек
    Цветовое пространство : YUV
    Субдискретизация насыщенности : 4:2:0
    Битовая глубина : 8 бит
    Тип развёртки : Прогрессивная
    Метод сжатия : С потерями
    Бит/(Пиксели*Кадры) : 0.292
    Размер потока : 1,08 Гбайт (82%)
    Библиотека кодирования : XviD 1.2.1 (UTC 2008-12-04)

    Аудио
    Идентификатор : 1
    Формат : AC-3
    Формат/Информация : Audio Coding 3
    Расширение режима : CM (complete main)
    Параметр Endianness формата : Big
    Идентификатор кодека : 2000
    Продолжительность : 1 ч. 40 м.
    Вид битрейта : Постоянный
    Битрейт : 320 Кбит/сек
    Каналы : 2 канала
    Расположение каналов : Front: L R
    Частота : 48,0 КГц
    Битовая глубина : 16 бит
    Метод сжатия : С потерями
    Размер потока : 231 Мбайт (17%)
    Выравнивание : Разделение по промежуткам
    Продолжительность промежутка : 42 мс. (1,00 видеокадр)
    Время предзагрузки промежутка : 500 мс.
    Скриншоты для ознакомления



    Размер скачиваемого торрента: 1.31 GB (1405995008 Bytes)

    Всё ещё возможно / Da geht noch was! (2013) HDRip | L1 скачать через торрент бесплатно
    загрузка...
    Рейтинг →
     (голосов: 1, оценка 3/5, голосовать можно 1 раз )

    Другие торренты по теме:

  • Меня всё ещё зовут Троица / ...continuavano a chiamarlo Trinit (1971) BDRip by msltel | P, A | Расширенная версия
  • Меня всё ещё зовут Троица / ...continuavano a chiamarlo Trinit (1971) BDRip 720p by msltel | P, A | Расширенная версия скачать через торрент бесплатно
  • Меня всё ещё зовут Троица / ...continuavano a chiamarlo Trinit (1971) BDRip 1080p by msltel | P, A | Расширенная версия скачать через торрент бесплатно
  • Меня всё ещё зовут Троица / ...continuavano a chiamarlo Trinit (1971) BDRip-AVC от MediaClub | Расширенная версия
  • Всё ещё возможно / Da geht noch was! (2013) BDRip 1080p от CINEMANIA | L1 скачать через торрент бесплатно
  • Герман Вук всё ещё жив
  • Всё ещё Элис / Still Alice (2014) BDRip-AVC от New-Team | P | Лицензия
  • Всё ещё Элис / Still Alice (2014) BDRip 720p от NNNB


    • Комментарии (0):

      Информация

      Информация

        Посетители, находящиеся в группе Гости, не могут оставлять комментарии в данной новости.

        ↓ Меню



        ↓ Опрос

        А Вы добавили сайт в закладки?
        Да
        Не


        Top 10 за месяц (Фильмы)