.
Авторизация | Регистрация
Хочешь лучшие торренты? Добавь свой email!
Добавить
» » Фантомас против Скотланд-Ярда / Fantomas contre Scotland Yard (1966) HDRip-AVC | iPhone | D,P скачать через торрент бесплатно




    Фантомас против Скотланд-Ярда / Fantomas contre Scotland Yard (1966) HDRip-AVC | iPhone | D,P скачать через торрент бесплатно

    Опубликовал: Админ | Дата: 27-02-2015, 11:10 | Просмотров: 248



    Фантомас против Скотланд-Ярда / Fantomas contre Scotland Yard (1966) HDRip-AVC | iPhone | D,P

    Русское название: Фантомас против Скотланд-Ярда
    Русское название в мировом прокате: Fantomas contre Scotland Yard
    Создали в: 1966
    Категория жанра: комедия, криминал, приключения
    Главный режиссер: Андре Юнебель
    Актеры: Жан Маре, Луи де Фюнес, Милен Демонжо, Франсуаза Кристоф, Жан-Роже Коссимон, Робер Дальбан, Андре Дюма, Макс Монтавон, Рита Ренуар, Жан Озенн

    Сюжет фильма:
    На этот раз злодей с тысячью лицами решает обложить данью богатейших людей мира, а взамен гарантирует им жизнь. Комиссар Жюв со своими верными друзьями, Фандором и Элен, прибывает в шотландский замок для того, чтобы встать на защиту его владельца и снова попытаться поймать Фантомаса.


    Снималось в: Франция, Италия
    Киностудия: P.A.C., Fair Film, Gaumont International
    Время просмотра: 1:40:59
    Перевод текста: Русский дублированный, профессиональный многоголосый закадровый

    Файл
    Кодек для видео: H.264
    Качество фильма: HDRip-AVC 480p
    Информация о видео: 640x368@852x368 (2.35:1) at 24.000 fps, AVC at 1800 kbps
    Информация о звуке:
    1: АAС 2.0 120 kbps - Русский дублированный
    2: АAС 2.0 124 kbps - Русский профессиональный многоголосый закадровый
    3: АAС 2.0 120 kbps - Французский
    Субтитры: русские, английские, французские

    MI

    General
    Complete name : C:CREATE264mod0outFantomas CollectionFantomas contre Scotland Yard.1966 (SD).m4v
    Format : MPEG-4
    Format profile : Base Media / Version 2
    Codec ID : mp42
    File size : 1.53 GiB
    Duration : 1h 40mn
    Overall bit rate mode : Variable
    Overall bit rate : 2 170 Kbps
    Movie name : Fantomas contre Scotland Yard
    Performer : Andre Hunebelle
    Genre : Comedy
    ContentType : Short Film
    Deion : На этот раз злодей с тысячью лицами решает обложить данью богатейших людей мира, а взамен гарантирует им жизнь.
    Recorded date : 1967-03-16T08:00:00Z
    Encoded date : UTC 2012-11-13 18:29:33
    Tagged date : UTC 2012-11-13 19:33:52
    Copyright : © 1967 GAUMONT (France)/DA.MA. PRODUZIONE (Italie)
    Cover : Yes
    Rating : None
    Title/Sort : Fantomas 3
    LongDeion : На этот раз злодей с тысячью лицами решает обложить данью богатейших людей мира, а взамен гарантирует им жизнь. Комиссар Жюв со своими верными друзьями, Фандором и Элен, прибывает в шотландский замок для того, чтобы встать на защиту его владельца и снова попытаться поймать Фантомаса.
    AppleStoreCatalogID : 389217463
    Vendor : Apple:vendor_id:1966-56787
    ContentRating : mpaa|NR|000|

    Video #1
    ID : 1
    Format : AVC
    Format/Info : Advanced Video Codec
    Format profile : Baseline@L3.0
    Format settings, CABAC : No
    Format settings, ReFrames : 2 frames
    Codec ID : avc1
    Codec ID/Info : Advanced Video Coding
    Duration : 1h 40mn
    Bit rate : 1 800 Kbps
    Width : 640 pixels
    Height : 368 pixels
    Display aspect ratio : 2.35:1
    Frame rate mode : Variable
    Frame rate : 24.000 fps
    Minimum frame rate : 23.810 fps
    Maximum frame rate : 24.390 fps
    Color space : YUV
    Chroma subsampling : 4:2:0
    Bit depth : 8 bits
    Scan type : Progressive
    Bits/(Pixel*Frame) : 0.318
    Stream size : 1.27 GiB (83%)
    Writing library : x264 core 120
    Encoding settings : cabac=0 / ref=2 / deblock=1:0:0 / analyse=0x1:0x111 / me=umh / subme=6 / psy=1 / psy_rd=1.00:0.00 / mixed_ref=1 / me_range=16 / chroma_me=1 / trellis=0 / 8x8dct=0 / cqm=0 / deadzone=21,11 / fast_pskip=0 / chroma_qp_offset=-2 / threads=12 / sliced_threads=0 / nr=0 / decimate=0 / interlaced=0 / bluray_compat=0 / constrained_intra=0 / bframes=0 / weightp=0 / keyint=240 / keyint_min=24 / scenecut=40 / intra_refresh=0 / rc_lookahead=40 / rc=2pass / mbtree=1 / bitrate=1800 / ratetol=1.0 / qcomp=0.60 / qpmin=3 / qpmax=69 / qpstep=4 / cplxblur=20.0 / qblur=0.5 / vbv_maxrate=5000 / vbv_bufsize=5000 / nal_hrd=none / ip_ratio=1.40 / aq=1:1.00
    Encoded date : UTC 2012-11-13 18:29:33
    Tagged date : UTC 2012-11-13 18:45:08
    Color primaries : BT.709
    Transfer characteristics : BT.709
    Matrix coefficients : BT.709

    Video #2
    ID : 9
    Format : JPEG
    Codec ID : jpeg
    Duration : 1h 40mn
    Bit rate mode : Variable
    Bit rate : 745 bps
    Width : 640 pixels
    Height : 276 pixels
    Display aspect ratio : 2.35:1
    Frame rate mode : Variable
    Frame rate : 0.002 fps
    Minimum frame rate : 0.001 fps
    Maximum frame rate : 0.004 fps
    Color space : YUV
    Chroma subsampling : 4:2:0
    Bit depth : 8 bits
    Compression mode : Lossy
    Bits/(Pixel*Frame) : 2.109
    Stream size : 546 KiB (0%)
    Encoded date : UTC 2012-11-13 19:21:30
    Tagged date : UTC 2012-11-13 19:21:30

    Audio #1
    ID : 2
    Format : AAC
    Format/Info : Advanced Audio Codec
    Format profile : LC
    Codec ID : 40
    Duration : 1h 40mn
    Bit rate mode : Variable
    Bit rate : 117 Kbps
    Maximum bit rate : 141 Kbps
    Channel(s) : 2 channels
    Channel positions : Front: L R
    Sampling rate : 48.0 KHz
    Compression mode : Lossy
    Stream size : 84.2 MiB (5%)
    Language : Russian
    Encoded date : UTC 2012-11-13 19:20:07
    Tagged date : UTC 2012-11-13 19:20:40

    Audio #2
    ID : 3
    Format : AAC
    Format/Info : Advanced Audio Codec
    Format profile : LC
    Codec ID : 40
    Duration : 1h 40mn
    Bit rate mode : Variable
    Bit rate : 124 Kbps
    Maximum bit rate : 138 Kbps
    Channel(s) : 2 channels
    Channel positions : Front: L R
    Sampling rate : 48.0 KHz
    Compression mode : Lossy
    Stream size : 89.5 MiB (6%)
    Language : Russian
    Encoded date : UTC 2012-11-13 19:20:07
    Tagged date : UTC 2012-11-13 19:21:04

    Audio #3
    ID : 4
    Format : AAC
    Format/Info : Advanced Audio Codec
    Format profile : LC
    Codec ID : 40
    Duration : 1h 40mn
    Bit rate mode : Variable
    Bit rate : 121 Kbps
    Maximum bit rate : 132 Kbps
    Channel(s) : 2 channels
    Channel positions : Front: L R
    Sampling rate : 48.0 KHz
    Compression mode : Lossy
    Stream size : 87.5 MiB (6%)
    Language : French
    Encoded date : UTC 2012-11-13 19:20:07
    Tagged date : UTC 2012-11-13 19:21:24

    Text #1
    ID : 5
    Format : Timed Text
    Muxing mode : sbtl
    Codec ID : tx3g
    Duration : 1h 38mn
    Bit rate mode : Variable
    Bit rate : 96 bps
    Stream size : 69.4 KiB (0%)
    Language : Russian
    Encoded date : UTC 2012-11-13 19:20:07
    Tagged date : UTC 2012-11-13 19:21:24

    Text #2
    ID : 6
    Format : Timed Text
    Muxing mode : sbtl
    Codec ID : tx3g
    Duration : 1h 38mn
    Bit rate mode : Variable
    Bit rate : 45 bps
    Stream size : 32.8 KiB (0%)
    Language : English
    Encoded date : UTC 2012-11-13 19:20:07
    Tagged date : UTC 2012-11-13 19:21:24

    Text #3
    ID : 7
    Format : Timed Text
    Muxing mode : sbtl
    Codec ID : tx3g
    Duration : 1h 38mn
    Bit rate mode : Variable
    Bit rate : 58 bps
    Stream size : 41.9 KiB (0%)
    Language : French
    Encoded date : UTC 2012-11-13 19:20:07
    Tagged date : UTC 2012-11-13 19:21:24

    Menu #1
    00:00:00.000 : Chapter01
    00:11:23.500 : Chapter02
    00:16:56.042 : Chapter03
    00:29:00.333 : Chapter04
    00:35:15.917 : Chapter05
    00:39:28.583 : Chapter06
    00:54:27.375 : Chapter07
    00:59:35.667 : Chapter08
    01:07:05.250 : Chapter09
    01:16:17.417 : Chapter10
    01:27:17.917 : Chapter11
    01:34:14.458 : Chapter12

    Menu #2
    ID : 8
    Codec ID : text
    Duration : 1h 40mn
    Language : English
    Encoded date : UTC 2012-11-13 19:21:24
    Tagged date : UTC 2012-11-13 19:21:24
    Bit rate mode : CBR

    iTunes tags

    Sort Name: Fantomas 3
    XID: Apple:vendor_id:1966-56787
    Content ID: 389217463
    Copyright: © 1967 GAUMONT (France)/DA.MA. PRODUZIONE (Italie)
    ScreenWriters: Пьер Сувестр, Марсель Аллен, Жан Ален
    Producers: Пол Кадеак, Ален Пуаре
    Director: Андре Юнебель
    Cast: Жан Маре, Луи де Фюнес, Милен Демонжо, Франсуаза Кристоф, Жан-Роже Коссимон
    Робер Дальбан, Андре Дюма, Макс Монтавон, Рита Ренуар, Жан Озенн
    Rating: Not Rated
    Long Deion: На этот раз злодей с тысячью лицами решает обложить данью богатейших людей мира, а взамен гарантирует им жизнь. Комиссар Жюв со своими верными друзьями, Фандором и Элен, прибывает в шотландский замок для того, чтобы встать на защиту его владельца и снова попытаться поймать Фантомаса.
    Deion: На этот раз злодей с тысячью лицами решает обложить данью богатейших людей мира, а взамен гарантирует им жизнь.
    Release Date: 1967-03-16T08:00:00Z
    Genre: Comedy
    Artist: Andre Hunebelle
    Name: Fantomas contre Scotland Yard
    x264

    x264 info: frame I:1389 Avg QP:19.03 size: 37865 PSNR Mean Y:43.71 U:48.71 V:48.63 Avg:44.79 Global:44.21
    x264 info: frame P:140915 Avg QP:21.32 size: 9095 PSNR Mean Y:41.75 U:47.44 V:47.38 Avg:42.94 Global:42.45
    x264 info: mb I I16..4: 12.9% 0.0% 87.1%
    x264 info: mb P I16..4: 0.7% 0.0% 2.1% P16..4: 55.7% 24.1% 10.6% 0.0% 0.0% skip: 6.8%
    x264 info: coded y,uvDC,uvAC intra: 81.7% 74.5% 47.9% inter: 55.0% 28.1% 13.9%
    x264 info: i16 v,h,dc,p: 53% 13% 12% 23%
    x264 info: i4 v,h,dc,ddl,ddr,vr,hd,vl,hu: 25% 12% 17% 7% 9% 10% 7% 8% 6%
    x264 info: i8c dc,h,v,p: 53% 14% 27% 6%
    x264 info: ref P L0: 71.0% 29.0%
    x264 info: SSIM Mean Y:0.9747335 (15.975db)
    x264 info: PSNR Mean Y:41.768 U:47.457 V:47.392 Avg:42.956 Global:42.468 kb/s:1800.08




    Залил: gekka
    Размер скачиваемого торрента: 1.53 GB (1643699205 Bytes)

    Фантомас против Скотланд-Ярда / Fantomas contre Scotland Yard (1966) HDRip-AVC | iPhone | D,P скачать через торрент бесплатно
    загрузка...
    Рейтинг →
     (голосов: 1, оценка 4/5, голосовать можно 1 раз )

    Другие торренты по теме:

  • Фантомас против Скотланд-Ярда / Fantmas contre Scotland Yard (1967) HDRip от Scarabey
  • Фантомас против Скотланд-Ярда / Fantmas contre Scotland Yard (1967) HDRip-AVC от New-Team скачать через торрент бесплатно
  • Фантомас против Скотланд-Ярда / Fantmas contre Scotland Yard (1967) HDRip от New-Team


    • Комментарии (0):

      Информация

      Информация

        Посетители, находящиеся в группе Гости, не могут оставлять комментарии в данной новости.

        ↓ Меню



        ↓ Опрос

        А Вы добавили сайт в закладки?
        Да
        Не


        Top 10 за месяц (Фильмы)