.
Авторизация | Регистрация
Хочешь лучшие торренты? Добавь свой email!
Добавить
» » Фантомас разбушевался / Fantomas se dechaine (1965) HDRip-AVC | iPhone | D,P скачать через торрент бесплатно




    Фантомас разбушевался / Fantomas se dechaine (1965) HDRip-AVC | iPhone | D,P скачать через торрент бесплатно

    Опубликовал: Админ | Дата: 27-02-2015, 11:10 | Просмотров: 253



    Фантомас разбушевался / Fantomas se dechaine (1965) HDRip-AVC | iPhone | D,P

    Русское название: Фантомас разбушевался
    Русское название в мировом прокате: Fantomas se dechaine
    Создали в: 1965
    Категория жанра: комедия, криминал, приключения
    Главный режиссер: Андре Юнебель
    Актеры: Жан Маре, Луи де Фюнес, Милен Демонжо, Жак Динам, Робер Дальбан, Альбер Даньян, Кристиан Тома, Мишель Дюпле, Оливье Де Фюнес, Флоранс Бло

    Сюжет фильма:
    Спустя год после того, как комиссар Жюв и репортер Фандор упустили Фантомаса, суперпреступник вновь дал о себе знать, похитив известного ученого. Следующей жертвой должен стать его помощник, профессор Лефевр. Фандор, выдавая себя за профессора, едет в Рим и… попадает прямо в руки Фантомаса. Спеша на выручку, Жюв и Элен сами попадают в ловушку. Теперь приходится думать, как спасаться самим и сбежать из логова Фантомаса.


    Снималось в: Франция, Италия
    Киностудия: P.A.C., Da Ma Produzione, Story Film
    Время просмотра: 1:38:49
    Перевод текста: Русский дублированный, профессиональный многоголосый закадровый

    Файл
    Кодек для видео: H.264
    Качество фильма: HDRip-AVC 480p
    Информация о видео: 640x368@852x368 (2.35:1) at 24.000 fps, AVC at 1800 kbps
    Информация о звуке:
    1: АAС 2.0 120 kbps - Русский дублированный
    2: АAС 2.0 120 kbps - Русский профессиональный многоголосый закадровый
    3: АAС 2.0 120 kbps - Французский
    Субтитры: русские, английские, французские

    MI

    General
    Complete name : C:CREATE264mod0outFantomas CollectionFantomas se dechaine.1965 (SD).m4v
    Format : MPEG-4
    Format profile : Base Media / Version 2
    Codec ID : mp42
    File size : 1.50 GiB
    Duration : 1h 38mn
    Overall bit rate mode : Variable
    Overall bit rate : 2 167 Kbps
    Movie name : Fantomas se dechaine
    Performer : Andre Hunebelle
    Genre : Comedy
    ContentType : Short Film
    Deion : Спустя год после того, как комиссар Жюв и репортер Фандор упустили Фантомаса, суперпреступник вновь дал о себе знать, похитив известного ученого.
    Recorded date : 1965-12-08T08:00:00Z
    Encoded date : UTC 2012-11-13 19:25:37
    Tagged date : UTC 2012-11-13 19:51:14
    Copyright : © 1965 GAUMONT (France)/DA.MA. PRODUZIONE (Italie)
    Cover : Yes
    Rating : None
    Title/Sort : Fantomas 2
    LongDeion : Спустя год после того, как комиссар Жюв и репортер Фандор упустили Фантомаса, суперпреступник вновь дал о себе знать, похитив известного ученого. Следующей жертвой должен стать его помощник, профессор Лефевр. Фандор, выдавая себя за профессора, едет в Рим и… попадает прямо в руки Фантомаса. Спеша на выручку, Жюв и Элен сами попадают в ловушку. Теперь приходится думать, как спасаться самим и сбежать из логова Фантомаса.
    AppleStoreCatalogID : 389551108
    Vendor : Apple:vendor_id:1965-47974
    ContentRating : mpaa|NR|000|

    Video #1
    ID : 1
    Format : AVC
    Format/Info : Advanced Video Codec
    Format profile : Baseline@L3.0
    Format settings, CABAC : No
    Format settings, ReFrames : 2 frames
    Codec ID : avc1
    Codec ID/Info : Advanced Video Coding
    Duration : 1h 38mn
    Bit rate : 1 800 Kbps
    Width : 640 pixels
    Height : 368 pixels
    Display aspect ratio : 2.35:1
    Frame rate mode : Variable
    Frame rate : 24.000 fps
    Minimum frame rate : 23.810 fps
    Maximum frame rate : 24.390 fps
    Color space : YUV
    Chroma subsampling : 4:2:0
    Bit depth : 8 bits
    Scan type : Progressive
    Bits/(Pixel*Frame) : 0.318
    Stream size : 1.24 GiB (83%)
    Writing library : x264 core 120
    Encoding settings : cabac=0 / ref=2 / deblock=1:0:0 / analyse=0x1:0x111 / me=umh / subme=6 / psy=1 / psy_rd=1.00:0.00 / mixed_ref=1 / me_range=16 / chroma_me=1 / trellis=0 / 8x8dct=0 / cqm=0 / deadzone=21,11 / fast_pskip=0 / chroma_qp_offset=-2 / threads=12 / sliced_threads=0 / nr=0 / decimate=0 / interlaced=0 / bluray_compat=0 / constrained_intra=0 / bframes=0 / weightp=0 / keyint=240 / keyint_min=24 / scenecut=40 / intra_refresh=0 / rc_lookahead=40 / rc=2pass / mbtree=1 / bitrate=1800 / ratetol=1.0 / qcomp=0.60 / qpmin=3 / qpmax=69 / qpstep=4 / cplxblur=20.0 / qblur=0.5 / vbv_maxrate=5000 / vbv_bufsize=5000 / nal_hrd=none / ip_ratio=1.40 / aq=1:1.00
    Encoded date : UTC 2012-11-13 19:25:37
    Tagged date : UTC 2012-11-13 19:41:44
    Color primaries : BT.709
    Transfer characteristics : BT.709
    Matrix coefficients : BT.709

    Video #2
    ID : 9
    Format : JPEG
    Codec ID : jpeg
    Duration : 1h 38mn
    Bit rate mode : Variable
    Bit rate : 811 bps
    Width : 640 pixels
    Height : 276 pixels
    Display aspect ratio : 2.35:1
    Frame rate mode : Variable
    Frame rate : 0.002 fps
    Minimum frame rate : 0.001 fps
    Maximum frame rate : 0.006 fps
    Color space : YUV
    Chroma subsampling : 4:2:0
    Bit depth : 8 bits
    Compression mode : Lossy
    Bits/(Pixel*Frame) : 2.296
    Stream size : 594 KiB (0%)
    Encoded date : UTC 2012-11-13 19:49:26
    Tagged date : UTC 2012-11-13 19:49:26

    Audio #1
    ID : 2
    Format : AAC
    Format/Info : Advanced Audio Codec
    Format profile : LC
    Codec ID : 40
    Duration : 1h 38mn
    Bit rate mode : Variable
    Bit rate : 117 Kbps
    Maximum bit rate : 137 Kbps
    Channel(s) : 2 channels
    Channel positions : Front: L R
    Sampling rate : 48.0 KHz
    Compression mode : Lossy
    Stream size : 82.5 MiB (5%)
    Language : Russian
    Encoded date : UTC 2012-11-13 19:49:00
    Tagged date : UTC 2012-11-13 19:49:11

    Audio #2
    ID : 3
    Format : AAC
    Format/Info : Advanced Audio Codec
    Format profile : LC
    Codec ID : 40
    Duration : 1h 38mn
    Bit rate mode : Variable
    Bit rate : 122 Kbps
    Maximum bit rate : 140 Kbps
    Channel(s) : 2 channels
    Channel positions : Front: L R
    Sampling rate : 48.0 KHz
    Compression mode : Lossy
    Stream size : 86.4 MiB (6%)
    Language : Russian
    Encoded date : UTC 2012-11-13 19:49:00
    Tagged date : UTC 2012-11-13 19:49:17

    Audio #3
    ID : 4
    Format : AAC
    Format/Info : Advanced Audio Codec
    Format profile : LC
    Codec ID : 40
    Duration : 1h 38mn
    Bit rate mode : Variable
    Bit rate : 119 Kbps
    Maximum bit rate : 131 Kbps
    Channel(s) : 2 channels
    Channel positions : Front: L R
    Sampling rate : 48.0 KHz
    Compression mode : Lossy
    Stream size : 84.0 MiB (5%)
    Language : French
    Encoded date : UTC 2012-11-13 19:49:00
    Tagged date : UTC 2012-11-13 19:49:22

    Text #1
    ID : 5
    Format : Timed Text
    Muxing mode : sbtl
    Codec ID : tx3g
    Duration : 1h 37mn
    Bit rate mode : Variable
    Bit rate : 82 bps
    Stream size : 58.2 KiB (0%)
    Language : Russian
    Encoded date : UTC 2012-11-13 19:49:00
    Tagged date : UTC 2012-11-13 19:49:22

    Text #2
    ID : 6
    Format : Timed Text
    Muxing mode : sbtl
    Codec ID : tx3g
    Duration : 1h 37mn
    Bit rate mode : Variable
    Bit rate : 40 bps
    Stream size : 28.4 KiB (0%)
    Language : English
    Encoded date : UTC 2012-11-13 19:49:00
    Tagged date : UTC 2012-11-13 19:49:22

    Text #3
    ID : 7
    Format : Timed Text
    Muxing mode : sbtl
    Codec ID : tx3g
    Duration : 1h 37mn
    Bit rate mode : Variable
    Bit rate : 46 bps
    Stream size : 33.1 KiB (0%)
    Language : French
    Encoded date : UTC 2012-11-13 19:49:00
    Tagged date : UTC 2012-11-13 19:49:22

    Menu #1
    00:00:00.000 : Chapter01
    00:05:16.000 : Chapter02
    00:09:08.917 : Chapter03
    00:17:37.333 : Chapter04
    00:23:38.208 : Chapter05
    00:37:06.167 : Chapter06
    00:46:56.333 : Chapter07
    00:56:40.042 : Chapter08
    00:59:41.125 : Chapter09
    01:05:19.000 : Chapter10
    01:12:54.500 : Chapter11
    01:28:14.667 : Chapter12

    Menu #2
    ID : 8
    Codec ID : text
    Duration : 1h 38mn
    Encoded date : UTC 2012-11-13 19:49:22
    Tagged date : UTC 2012-11-13 19:49:22
    Bit rate mode : CBR
    iTunes tags

    Sort Name: Fantomas 2
    XID: Apple:vendor_id:1965-47974
    Content ID: 389551108
    Copyright: © 1965 GAUMONT (France)/DA.MA. PRODUZIONE (Italie)
    ScreenWriters: Пьер Сувестр, Марсель Аллен, Жан Ален
    Producers: Пол Кадеак, Ален Пуаре
    Director: Андре Юнебель
    Cast: Жан Маре, Луи де Фюнес, Милен Демонжо, Жак Динам, Робер Дальбан, Альбер Даньян, Кристиан Тома, Мишель Дюпле, Оливье Де Фюнес, Флоранс Бло
    Rating: Not Rated
    Long Deion: Спустя год после того, как комиссар Жюв и репортер Фандор упустили Фантомаса, суперпреступник вновь дал о себе знать, похитив известного ученого. Следующей жертвой должен стать его помощник, профессор Лефевр. Фандор, выдавая себя за профессора, едет в Рим и… попадает прямо в руки Фантомаса. Спеша на выручку, Жюв и Элен сами попадают в ловушку. Теперь приходится думать, как спасаться самим и сбежать из логова Фантомаса.
    Deion: Спустя год после того, как комиссар Жюв и репортер Фандор упустили Фантомаса, суперпреступник вновь дал о себе знать, похитив известного ученого.
    Release Date: 1965-12-08T08:00:00Z
    Genre: Comedy
    Artist: Andre Hunebelle
    Name: Fantomas se dechaine
    x264

    x264 info: frame I:1574 Avg QP:18.81 size: 36014 PSNR Mean Y:44.26 U:50.85 V:50.14 Avg:45.41 Global:44.06
    x264 info: frame P:143840 Avg QP:20.45 size: 9080 PSNR Mean Y:42.61 U:48.23 V:47.74 Avg:43.76 Global:43.07
    x264 info: mb I I16..4: 14.7% 0.0% 85.3%
    x264 info: mb P I16..4: 0.7% 0.0% 2.2% P16..4: 55.7% 24.8% 10.7% 0.0% 0.0% skip: 5.9%
    x264 info: coded y,uvDC,uvAC intra: 81.5% 71.9% 43.4% inter: 54.8% 28.4% 14.8%
    x264 info: i16 v,h,dc,p: 51% 14% 13% 22%
    x264 info: i4 v,h,dc,ddl,ddr,vr,hd,vl,hu: 23% 12% 17% 7% 9% 10% 8% 8% 7%
    x264 info: i8c dc,h,v,p: 57% 14% 24% 6%
    x264 info: ref P L0: 72.3% 27.7%
    x264 info: SSIM Mean Y:0.9774216 (16.463db)
    x264 info: PSNR Mean Y:42.627 U:48.263 V:47.768 Avg:43.777 Global:43.078 kb/s:1799.31




    Залил: gekka
    Размер скачиваемого торрента: 1.50 GB (1606304143 Bytes)

    Фантомас разбушевался / Fantomas se dechaine (1965) HDRip-AVC | iPhone | D,P скачать через торрент бесплатно
    загрузка...
    Рейтинг →
     (голосов: 1, оценка 3/5, голосовать можно 1 раз )

    Другие торренты по теме:

  • Фантомас разбушевался / Fantmas se dchane (1965) HDRip от Scarabey
  • Фантомас разбушевался / Fantmas se dchane (1965) HDRip от New-Team скачать через торрент бесплатно
  • Фантомас разбушевался / Fantmas se dchane (1965) HDRip-AVC от New-Team скачать через торрент бесплатно
  • Фантомас разбушевался / Fantomas Se Dechaine (1965) BDRip 720p | FilmRus скачать через торрент бесплатно


    • Комментарии (0):

      Информация

      Информация

        Посетители, находящиеся в группе Гости, не могут оставлять комментарии в данной новости.

        ↓ Меню



        ↓ Опрос

        А Вы добавили сайт в закладки?
        Да
        Не


        Top 10 за месяц (Фильмы)