.
Авторизация | Регистрация
» » Фантомас / Fantomas (1964) HDRip-AVC | iPhone | D,P скачать через торрент бесплатно




    Фантомас / Fantomas (1964) HDRip-AVC | iPhone | D,P скачать через торрент бесплатно

    Опубликовал: Админ | Дата: 27-02-2015, 11:10 | Просмотров: 211



    Фантомас / Fantomas (1964) HDRip-AVC | iPhone | D,P

    Русское название: Фантомас
    Русское название в мировом прокате: Fantomas
    Создали в: 1964
    Категория жанра: комедия, криминал, приключения
    Главный режиссер: Андре Юнебель
    Актеры: Жан Маре, Луи де Фюнес, Милен Демонжо, Жак Динам, Робер Дальбан, Мари-Элен Арно, Анн-Мари Пейссон, Кристиан Тома, Мишель Дюпле, Андре Таинси

    Сюжет фильма:
    Первый фильм трилогии о невероятных приключениях комиссара Жюва, преследующего неуловимого преступника Фантомаса. Париж потрясен сенсационными и дерзкими преступлениями, совершенными таинственным злодеем по имени Фантомас. На его поимку брошены все силы полиции, но Фантомас практически неуловим — он все время меняет облик, ловко ускользая из рук правосудия. Напасть на его след удается только комиссару Жюву с помощью Элен, подруги похищенного журналиста Фандора.


    Снималось в: Франция, Италия
    Киностудия: P.A.C., P.C.M. FIlm
    Время просмотра: 1:40:16
    Перевод текста: Русский дублированный, профессиональный многоголосый закадровый

    Файл
    Кодек для видео: H.264
    Качество фильма: HDRip-AVC 480p
    Информация о видео: 640x368@852x368 (2.35:1) at 24.000 fps, AVC at 1800 kbps
    Информация о звуке:
    1: АAС 2.0 116 kbps - Русский дублированный
    2: АAС 2.0 126 kbps - Русский профессиональный многоголосый закадровый
    3: АAС 2.0 126 kbps - Французский
    Субтитры: русские, английские, французские

    MI

    General
    Complete name : C:CREATE264mod0outFantomas CollectionFantomas.1964 (SD).m4v
    Format : MPEG-4
    Format profile : Base Media / Version 2
    Codec ID : mp42
    File size : 1.58 GiB
    Duration : 1h 44mn
    Overall bit rate mode : Variable
    Overall bit rate : 2 175 Kbps
    Movie name : Fantomas
    Performer : Andre Hunebelle
    Genre : Comedy
    ContentType : Short Film
    Deion : Первый фильм трилогии о невероятных приключениях комиссара Жюва, преследующего неуловимого преступника Фантомаса.
    Recorded date : UTC 1964-11-04 08:00:00
    Encoded date : UTC 2012-11-13 17:20:41
    Tagged date : UTC 2012-11-13 18:36:11
    Copyright : © 1964 GAUMONT (France)/DA.MA. PRODUZIONE (Italie)
    Cover : Yes
    Rating : None
    Title/Sort : Fantomas 1
    LongDeion : Первый фильм трилогии о невероятных приключениях комиссара Жюва, преследующего неуловимого преступника Фантомаса. Париж потрясен сенсационными и дерзкими преступлениями, совершенными таинственным злодеем по имени Фантомас. На его поимку брошены все силы полиции, но Фантомас практически неуловим — он все время меняет облик, ловко ускользая из рук правосудия. Напасть на его след удается только комиссару Жюву с помощью Элен, подруги похищенного журналиста Фандора.
    AppleStoreCatalogID : 389144624
    Vendor : Apple:vendor_id:1964-47984
    ContentRating : mpaa|NR|000|

    Video #1
    ID : 1
    Format : AVC
    Format/Info : Advanced Video Codec
    Format profile : Baseline@L3.0
    Format settings, CABAC : No
    Format settings, ReFrames : 2 frames
    Codec ID : avc1
    Codec ID/Info : Advanced Video Coding
    Duration : 1h 44mn
    Bit rate : 1 800 Kbps
    Width : 640 pixels
    Height : 368 pixels
    Display aspect ratio : 2.35:1
    Frame rate mode : Variable
    Frame rate : 24.000 fps
    Minimum frame rate : 23.810 fps
    Maximum frame rate : 24.390 fps
    Color space : YUV
    Chroma subsampling : 4:2:0
    Bit depth : 8 bits
    Scan type : Progressive
    Bits/(Pixel*Frame) : 0.318
    Stream size : 1.31 GiB (83%)
    Writing library : x264 core 120
    Encoding settings : cabac=0 / ref=2 / deblock=1:0:0 / analyse=0x1:0x111 / me=umh / subme=6 / psy=1 / psy_rd=1.00:0.00 / mixed_ref=1 / me_range=16 / chroma_me=1 / trellis=0 / 8x8dct=0 / cqm=0 / deadzone=21,11 / fast_pskip=0 / chroma_qp_offset=-2 / threads=12 / sliced_threads=0 / nr=0 / decimate=0 / interlaced=0 / bluray_compat=0 / constrained_intra=0 / bframes=0 / weightp=0 / keyint=240 / keyint_min=24 / scenecut=40 / intra_refresh=0 / rc_lookahead=40 / rc=2pass / mbtree=1 / bitrate=1800 / ratetol=1.0 / qcomp=0.60 / qpmin=3 / qpmax=69 / qpstep=4 / cplxblur=20.0 / qblur=0.5 / vbv_maxrate=5000 / vbv_bufsize=5000 / nal_hrd=none / ip_ratio=1.40 / aq=1:1.00
    Encoded date : UTC 2012-11-13 17:20:41
    Tagged date : UTC 2012-11-13 18:01:18
    Color primaries : BT.709
    Transfer characteristics : BT.709
    Matrix coefficients : BT.709

    Video #2
    ID : 9
    Format : JPEG
    Codec ID : jpeg
    Duration : 1h 44mn
    Bit rate mode : Variable
    Bit rate : 806 bps
    Width : 640 pixels
    Height : 276 pixels
    Display aspect ratio : 2.35:1
    Frame rate mode : Variable
    Frame rate : 0.002 fps
    Minimum frame rate : 0.001 fps
    Maximum frame rate : 0.004 fps
    Color space : YUV
    Chroma subsampling : 4:2:0
    Bit depth : 8 bits
    Compression mode : Lossy
    Bits/(Pixel*Frame) : 2.281
    Stream size : 590 KiB (0%)
    Encoded date : UTC 2012-11-13 18:34:40
    Tagged date : UTC 2012-11-13 18:34:40

    Audio #1
    ID : 2
    Format : AAC
    Format/Info : Advanced Audio Codec
    Format profile : LC
    Codec ID : 40
    Duration : 1h 44mn
    Bit rate mode : Variable
    Bit rate : 116 Kbps
    Maximum bit rate : 138 Kbps
    Channel(s) : 2 channels
    Channel positions : Front: L R
    Sampling rate : 48.0 KHz
    Compression mode : Lossy
    Stream size : 86.7 MiB (5%)
    Language : Russian
    Encoded date : UTC 2012-11-13 18:33:16
    Tagged date : UTC 2012-11-13 18:33:51

    Audio #2
    ID : 3
    Format : AAC
    Format/Info : Advanced Audio Codec
    Format profile : LC
    Codec ID : 40
    Duration : 1h 44mn
    Bit rate mode : Variable
    Bit rate : 126 Kbps
    Maximum bit rate : 140 Kbps
    Channel(s) : 2 channels
    Channel positions : Front: L R
    Sampling rate : 48.0 KHz
    Compression mode : Lossy
    Stream size : 93.9 MiB (6%)
    Language : Russian
    Encoded date : UTC 2012-11-13 18:33:16
    Tagged date : UTC 2012-11-13 18:34:16

    Audio #3
    ID : 4
    Format : AAC
    Format/Info : Advanced Audio Codec
    Format profile : LC
    Codec ID : 40
    Duration : 1h 44mn
    Bit rate mode : Variable
    Bit rate : 125 Kbps
    Maximum bit rate : 134 Kbps
    Channel(s) : 2 channels
    Channel positions : Front: L R
    Sampling rate : 48.0 KHz
    Compression mode : Lossy
    Stream size : 93.2 MiB (6%)
    Language : French
    Encoded date : UTC 2012-11-13 18:33:16
    Tagged date : UTC 2012-11-13 18:34:34

    Text #1
    ID : 5
    Format : Timed Text
    Muxing mode : sbtl
    Codec ID : tx3g
    Duration : 1h 42mn
    Bit rate mode : Variable
    Bit rate : 68 bps
    Stream size : 51.0 KiB (0%)
    Language : Russian
    Encoded date : UTC 2012-11-13 18:33:16
    Tagged date : UTC 2012-11-13 18:34:34

    Text #2
    ID : 6
    Format : Timed Text
    Muxing mode : sbtl
    Codec ID : tx3g
    Duration : 1h 42mn
    Bit rate mode : Variable
    Bit rate : 31 bps
    Stream size : 23.3 KiB (0%)
    Language : English
    Encoded date : UTC 2012-11-13 18:33:16
    Tagged date : UTC 2012-11-13 18:34:34

    Text #3
    ID : 7
    Format : Timed Text
    Muxing mode : sbtl
    Codec ID : tx3g
    Duration : 1h 42mn
    Bit rate mode : Variable
    Bit rate : 42 bps
    Stream size : 31.5 KiB (0%)
    Language : French
    Encoded date : UTC 2012-11-13 18:33:16
    Tagged date : UTC 2012-11-13 18:34:34

    Menu #1
    00:00:00.000 : Chapter01
    00:05:22.833 : Chapter02
    00:13:09.917 : Chapter03
    00:22:43.583 : Chapter04
    00:27:30.083 : Chapter05
    00:34:57.458 : Chapter06
    00:51:34.542 : Chapter07
    00:56:07.667 : Chapter08
    01:00:53.833 : Chapter09
    01:08:51.000 : Chapter10
    01:16:32.833 : Chapter11
    01:32:48.083 : Chapter12

    Menu #2
    ID : 8
    Codec ID : text
    Duration : 1h 44mn
    Encoded date : UTC 2012-11-13 18:34:34
    Tagged date : UTC 2012-11-13 18:34:34
    Bit rate mode : CBR

    iTunes tags

    Sort Name: Fantomas 1
    XID: Apple:vendor_id:1964-47984
    Content ID: 389144624
    Copyright: © 1964 GAUMONT (France)/DA.MA. PRODUZIONE (Italie)
    ScreenWriters: Жан Ален, Пьер Фуко, Пьер Сувестр
    Producers: Лучиано Эрколи, Сирил Грайз, Альберто Пульезе
    Director: Андре Юнебель
    Cast: Жан Маре, Луи де Фюнес, Милен Демонжо, Жак Динам, Робер Дальбан, Мари-Элен Арно, Анн-Мари Пейссон, Кристиан Тома, Мишель Дюпле, Андре Таинси
    Rating: Not Rated
    Long Deion: Первый фильм трилогии о невероятных приключениях комиссара Жюва, преследующего неуловимого преступника Фантомаса. Париж потрясен сенсационными и дерзкими преступлениями, совершенными таинственным злодеем по имени Фантомас. На его поимку брошены все силы полиции, но Фантомас практически неуловим — он все время меняет облик, ловко ускользая из рук правосудия. Напасть на его след удается только комиссару Жюву с помощью Элен, подруги похищенного журналиста Фандора.
    Deion: Первый фильм трилогии о невероятных приключениях комиссара Жюва, преследующего неуловимого преступника Фантомаса.
    Release Date: 1964-11-04T08:00:00Z
    Genre: Comedy
    Artist: Andre Hunebelle
    Name: Fantomas
    x264

    x264 info: frame I:1386 Avg QP:19.70 size: 39164 PSNR Mean Y:43.00 U:48.92 V:48.14 Avg:44.15 Global:43.52
    x264 info: frame P:148756 Avg QP:22.19 size: 9090 PSNR Mean Y:40.88 U:47.51 V:46.76 Avg:42.13 Global:41.52
    x264 info: mb I I16..4: 13.9% 0.0% 86.1%
    x264 info: mb P I16..4: 0.8% 0.0% 2.4% P16..4: 56.3% 22.9% 10.4% 0.0% 0.0% skip: 7.2%
    x264 info: coded y,uvDC,uvAC intra: 78.9% 71.3% 42.6% inter: 53.1% 25.9% 11.5%
    x264 info: i16 v,h,dc,p: 49% 17% 11% 22%
    x264 info: i4 v,h,dc,ddl,ddr,vr,hd,vl,hu: 18% 18% 16% 7% 9% 8% 10% 7% 8%
    x264 info: i8c dc,h,v,p: 56% 19% 20% 6%
    x264 info: ref P L0: 72.5% 27.5%
    x264 info: SSIM Mean Y:0.9732009 (15.719db)
    x264 info: PSNR Mean Y:40.898 U:47.524 V:46.772 Avg:42.144 Global:41.533 kb/s:1798.67




    Залил: gekka
    Размер скачиваемого торрента: 1.58 GB (1700838824 Bytes)

    Фантомас / Fantomas (1964) HDRip-AVC | iPhone | D,P скачать через торрент бесплатно
    загрузка...
    Рейтинг →
     (голосов: 1, оценка 3/5, голосовать можно 1 раз )

    Другие торренты по теме:

  • Фантомас против Скотланд-Ярда / Fantmas contre Scotland Yard (1967) HDRip от Scarabey торрент скачать бесплатно
  • Фантомас разбушевался / Fantmas se dchane (1965) HDRip от Scarabey торрент скачать бесплатно
  • Фантомас: Трилогия / Fantomas: Trilogy (1964-1967) BDRip 720p | D, P скачать через торрент бесплатно
  • Фантомас: Трилогия / Fantomas: Trilogy (1964-1967) BDRip-AVC | D скачать через торрент бесплатно
  • Фантомас / Fantmas (1913-1914) DVDRip | L1 торрент скачать бесплатно
  • Фантомас / Fantmas (1964) HDRip от Youtracker торрент скачать бесплатно
  • Фантомас разбушевался / Fantmas se dchane (1965) HDRip от New-Team скачать через торрент бесплатно
  • Фантомас разбушевался / Fantmas se dchane (1965) HDRip-AVC от New-Team скачать через торрент бесплатно


    • Комментарии (0):

      Информация

      Информация

        Посетители, находящиеся в группе Гости, не могут оставлять комментарии в данной новости.

        ↓ Меню



        ↓ Опрос

        А Вы добавили сайт в закладки?
        Да
        Не


        Top 10 за неделю (Фильмы)