.
Авторизация | Регистрация
Хочешь лучшие торренты? Добавь свой email!
Добавить
» » Взрослые дети развода / A.C.O.D. (2013) BDRip 1080p | D | iTunes Russia скачать через торрент бесплатно




    Взрослые дети развода / A.C.O.D. (2013) BDRip 1080p | D | iTunes Russia скачать через торрент бесплатно

    Опубликовал: Админ | Дата: 27-02-2015, 11:10 | Просмотров: 191

    Детально о кино
    Русское название: Взрослые дети развода / A.C.O.D.
    Создали в: 2013
    Категория жанра: Комедия
    Главный режиссер: Стью Зичерман
    Актеры: Адам Скотт, Ричард Дженкинс, Кэтрин О’Хара, Эми Полер, Кларк Дьюк, Джессика Альба, Джейн Линч, Мэри Элизабет Уинстэд, Кен Ховард, Валери Тиан


    Сюжет:
    Главный герой на протяжении 20 лет разрывается между разведенными родителями. Ситуация еще более осложняется, когда его брат решает жениться, в результате чего вражда родителей выходит на новую фазу. А отец двух братьев, чье нежелание идти на компромиссы и сильная неприязнь к бывшей жене, представляет собой еще большую угрозу для свадьбы.








    Тех. данные


    Время просмотра: 01:27:43
    Снималось в: США, Black Bear Pictures, Process Media
    Перевод текста: Дублированный


    Файл
    Тип видео: MKV
    Качество фильма: BDRip 1080p
    Информация о видео: MPEG-4 AVC, 9191 Кбит/с, 1920x1080
    Информация о звуке: Русский (AC3, 6 ch, 384 Кбит/с), английский (DTS, 6 ch, 1510 кбит/c)
    Инфо:

    Озвучивание: Дублированное iTunes Russia
    Дополнитлено: Сохранены оригинальные чаптеры
    Скриншоты для ознакомления


    MI:

    A.C.O.D.2013.D.BDRip.1080p.mkv
    Format : Matroska
    File size : 6.79 GiB
    Duration : 1h 27mn
    Overall bit rate : 11.1 Mbps
    Encoded date : UTC 2014-03-24 19:18:28
    Writing application : mkvmerge v6.8.0 (;Theme for Great Cities;) 64bit built on Mar 2 2014 21:34:26
    Writing library : libebml v1.3.0 libmatroska v1.4.1

    Video
    ID : 1
    Format : AVC
    Format/Info : Advanced Video Codec
    Format profile : High@L4.0
    Format settings, CABAC : Yes
    Format settings, ReFrames : 4 frames
    Muxing mode : Container profile=Unknown@4.0
    Codec ID : V_MPEG4/ISO/AVC
    Duration : 1h 27mn
    Bit rate : 9 191 Kbps
    Width : 1 920 pixels
    Height : 1 080 pixels
    Display aspect ratio : 16:9
    Frame rate : 23.976 fps
    Color space : YUV
    Chroma subsampling : 4:2:0
    Bit depth : 8 bits
    Scan type : Progressive
    Bits/(Pixel*Frame) : 0.185
    Stream size : 5.49 GiB (81%)
    Writing library : x264 core 140 r2377 1ca7bb9
    Encoding settings : cabac=1 / ref=4 / deblock=1:0:0 / analyse=0x3:0x133 / me=umh / subme=8 / psy=1 / psy_rd=1.00:0.00 / mixed_ref=1 / me_range=16 / chroma_me=1 / trellis=1 / 8x8dct=1 / cqm=0 / deadzone=21,11 / fast_pskip=0 / chroma_qp_offset=-2 / threads=18 / lookahead_threads=3 / sliced_threads=0 / nr=0 / decimate=1 / interlaced=0 / bluray_compat=0 / constrained_intra=0 / bframes=3 / b_pyramid=2 / b_adapt=2 / b_bias=0 / direct=3 / weightb=1 / open_gop=0 / weightp=2 / keyint=250 / keyint_min=23 / scenecut=40 / intra_refresh=0 / rc_lookahead=50 / rc=2pass / mbtree=1 / bitrate=9191 / ratetol=1.0 / qcomp=0.60 / qpmin=0 / qpmax=69 / qpstep=4 / cplxblur=20.0 / qblur=0.5 / ip_ratio=1.40 / aq=1:1.00

    Audio #1
    ID : 2
    Format : AC-3
    Format/Info : Audio Coding 3
    Mode extension : CM (complete main)
    Codec ID : A_AC3
    Duration : 1h 27mn
    Bit rate mode : Constant
    Bit rate : 384 Kbps
    Channel(s) : 6 channels
    Channel positions : Front: L C R, Side: L R, LFE
    Sampling rate : 48.0 KHz
    Stream size : 241 MiB (3%)
    Language : Russian

    Audio #2
    ID : 3
    Format : DTS
    Format/Info : Digital Theater Systems
    Codec ID : A_DTS
    Duration : 1h 27mn
    Bit rate mode : Constant
    Bit rate : 1 510 Kbps
    Channel(s) : 6 channels
    Channel positions : Front: L C R, Side: L R, LFE
    Sampling rate : 48.0 KHz
    Bit depth : 24 bits
    Stream size : 947 MiB (14%)

    Размер скачиваемого торрента: 6.79 GB (7290247435 Bytes)

    Взрослые дети развода / A.C.O.D. (2013) BDRip 1080p | D | iTunes Russia скачать через торрент бесплатно
    загрузка...
    Рейтинг →
     (голосов: 1, оценка 4/5, голосовать можно 1 раз )

    Другие торренты по теме:

  • Взрослые дети развода / A.C.O.D. (2013) HDRip | iTunes скачать через торрент бесплатно
  • Взрослые дети развода / A.C.O.D. (2013) HDRip от Torrange | D | iTunes Russia скачать через торрент бесплатно
  • Взрослые дети развода / A.C.O.D. (2013) BDRip-AVC | iTunes Russia скачать через торрент бесплатно
  • Взрослые дети развода / A.C.O.D. (2013) BDRip 720p | D | iTunes Russia скачать через торрент бесплатно
  • Взрослые дети развода / A.C.O.D. (2013) Blu-Ray Remux 1080p | D | iTunes Russia скачать через торрент бесплатно
  • Взрослые Дети Развода / A.C.O.D. (2013) HDRip от Scarabey | D | iTunes Russia скачать через торрент бесплатно
  • Взрослые дети / 1961 / РУ / DVDRip
  • Взрослые и дети. Большой праздничный концерт (2013) HDTV 1080i


    • Комментарии (0):

      Информация

      Информация

        Посетители, находящиеся в группе Гости, не могут оставлять комментарии в данной новости.

        ↓ Меню



        ↓ Опрос

        А Вы добавили сайт в закладки?
        Да
        Не


        Top 10 за месяц (Фильмы)