.
Авторизация | Регистрация
Хочешь лучшие торренты? Добавь свой email!
Добавить
» » Помощники / The Helpers (2012) WEB-DL 1080p от CINEMANIA | D скачать через торрент бесплатно




    Помощники / The Helpers (2012) WEB-DL 1080p от CINEMANIA | D скачать через торрент бесплатно

    Опубликовал: Админ | Дата: 27-02-2015, 11:10 | Просмотров: 235



    Детально о кино
    Русское название: Помощники
    Русское название в мировом прокате: The Helpers
    Категория жанра: ужасы, триллер
    Создали в: 2012
    Главный режиссер: Крис Стоукс
    Актеры: Кристен Куинтрелл, Денис Лоутон, Кристофер Джонс, Джо Райт, Рэйчел Стерлинг, Блэк Томас, Дастин Хэрниш, Камерон Дискин, Брэкстон Дэвис, Даллас Ловато

    Сюжет фильма:
    Веселая компания из семерых друзей решает отправиться в Лас-Вегас и заснять свое путешествие на видео. К сожалению, их планы нарушаются, когда одно из колес оказывается пробитым, а заменить его самостоятельно молодые люди не могут. Ребята решают остановиться в уютном мотеле, где их тепло приветствует вежливый и располагающий к общению персонал.

    Получив уверения, что их машину починят как можно быстрее, ребята успокаиваются и продолжают снимать на видео свои приключения, даже не подозревая, что очень скоро поездка превратится в настоящий кошмар. В их номерах тоже стоят камеры, а приятный в общении персонал гостиницы всегда готов подсобить... в путешествии на тот свет. Выбрав этот мотель, молодые люди подписали себе смертный приговор – здесь обитают самые настоящие маньяки, которые преследуют собственные извращенные цели. Но вот какие именно? Если кому-то из наших героев удастся выжить в этом аду, может, он и поймет, ради чего все затевалось.



    Снималось в: США
    Время просмотра: 01:21:04
    Тип перевода: Дублированное online movies - IVI

    Файл
    Тип видео: MKV
    Качество фильма: WEB-DL 1080p CrazyHD
    Информация о видео: 4093 kb/s, 1906x818
    Информация о звуке: Russian: AC3, 192 kb/s (2 ch) / English: AC3, 384 kb/s (6 ch)
    Дополнительно: Сохранены оригинальные чаптеры как на Blu-Ray
    Размер скачиваемого торрента: 2.70 GB
    Скачать: Сэмпл

    Релиз группы:




    NFO
    Общее
    The.Helpers.2012.WEB.DL.1080p.CINEMANIA.mkv
    Формат : Matroska
    Версия формата : Version 4 / Version 2
    Размер файла : 2,70 Гбайт
    Продолжительность : 1 ч. 21 м.
    Общий поток : 4764 Кбит/сек
    Название фильма : Release Group CINEMANIA
    Дата кодирования : UTC 2014-03-28 21:42:32
    Программа кодирования : mkvmerge v6.8.0 (;Theme for Great Cities;) 64bit built on Mar 2 2014 21:34:26
    Библиотека кодирования : libebml v1.3.0 libmatroska v1.4.1

    Видео
    Идентификатор : 1
    Формат : AVC
    Формат/Информация : Advanced Video Codec
    Профиль формата : High@L4.0
    Параметр CABAC формата : Да
    Параметр ReFrames формата : 5 кадров
    Идентификатор кодека : V_MPEG4/ISO/AVC
    Продолжительность : 1 ч. 21 м.
    Битрейт : 4093 Кбит/сек
    Ширина : 1906 пикселей
    Высота : 818 пикселей
    Соотношение сторон : 2,35:1
    Режим частоты кадров : Постоянный
    Частота кадров : 23,976 кадра/сек
    Цветовое пространство : YUV
    Субдискретизация насыщенности : 4:2:0
    Битовая глубина : 8 бит
    Тип развёртки : Прогрессивная
    Бит/(Пиксели*Кадры) : 0.109
    Размер потока : 2,32 Гбайт (86%)
    Заголовок : Release Group CINEMANIA
    Язык : English
    Default : Да
    Forced : Нет
    Основные цвета : BT.709
    Характеристики трансфера : BT.709
    Коэффициенты матрицы : BT.709

    Аудио #1
    Идентификатор : 2
    Формат : AC-3
    Формат/Информация : Audio Coding 3
    Расширение режима : CM (complete main)
    Параметр Endianness формата : Big
    Идентификатор кодека : A_AC3
    Продолжительность : 1 ч. 21 м.
    Вид битрейта : Постоянный
    Битрейт : 192 Кбит/сек
    Каналы : 2 канала
    Расположение каналов : Front: L R
    Частота : 48,0 КГц
    Битовая глубина : 16 бит
    Метод сжатия : С потерями
    Размер потока : 111 Мбайт (4%)
    Заголовок : IVI
    Язык : Russian
    Default : Да
    Forced : Да

    Аудио #2
    Идентификатор : 3
    Формат : AC-3
    Формат/Информация : Audio Coding 3
    Расширение режима : CM (complete main)
    Параметр Endianness формата : Big
    Идентификатор кодека : A_AC3
    Продолжительность : 1 ч. 21 м.
    Вид битрейта : Постоянный
    Битрейт : 384 Кбит/сек
    Каналы : 6 каналов
    Расположение каналов : Front: L C R, Side: L R, LFE
    Частота : 48,0 КГц
    Битовая глубина : 16 бит
    Метод сжатия : С потерями
    Размер потока : 223 Мбайт (8%)
    Язык : English
    Default : Нет
    Forced : Нет

    Меню
    00:00:00.000 : en:Chapter 1
    00:06:59.000 : en:Chapter 2
    00:11:34.000 : en:Chapter 3
    00:19:36.000 : en:Chapter 4
    00:25:42.000 : en:Chapter 5
    00:33:02.000 : en:Chapter 6
    00:41:07.000 : en:Chapter 7
    00:48:23.000 : en:Chapter 8
    00:54:28.000 : en:Chapter 9
    01:04:42.000 : en:Chapter 10
    01:13:10.000 : en:Chapter 11
    01:19:57.000 : en:Chapter 12

    Залил: DGEKIGAN
    Размер скачиваемого торрента: 2.70 GB (2896639764 Bytes)

    Помощники / The Helpers (2012) WEB-DL 1080p от CINEMANIA | D скачать через торрент бесплатно
    загрузка...
    Рейтинг →
     (голосов: 1, оценка 5/5, голосовать можно 1 раз )

    Другие торренты по теме:

  • Помощники / The Helpers (2012) DVDRip | Чистый Звук
  • Помощники / The Helpers (2012) DVDRip от Deadmauvlad | Back Board Cinema скачать через торрент бесплатно
  • Помощники / The Helpers (2012) WEB-DLRip от Deadmauvlad | D


    • Комментарии (0):

      Информация

      Информация

        Посетители, находящиеся в группе Гости, не могут оставлять комментарии в данной новости.

        ↓ Меню



        ↓ Опрос

        А Вы добавили сайт в закладки?
        Да
        Не


        Top 10 за месяц (Фильмы)