.
Авторизация | Регистрация
» » Лекарь: Ученик Авиценны / The Physician (2013) BDRip от New-Team | D | лицензия скачать через торрент бесплатно




    Лекарь: Ученик Авиценны / The Physician (2013) BDRip от New-Team | D | лицензия скачать через торрент бесплатно

    Опубликовал: Админ | Дата: 27-02-2015, 11:10 | Просмотров: 186

    Через пески времени к свету



    Снималось в: Германия / ARD Degeto Film GmbH, Beta Cinema, Cine Mobil, CinePostproduction...

    Категория жанра: драма, приключения
    Создали в: 2013
    Время просмотра: 02:34:47
    Перевод текста: Профессиональный дублированный
    Субтитры подготовлены: нет
    Оригинальная аудиодорожка: нет

    Главный режиссер: Филипп Штёльцль / Philipp St?lzl

    Актеры: Том Пэйн, Бен Кингсли, Эмма Ригби, Стеллан Скарсгард, Оливье Мартинес, Элиас ЭмБарек, Майкл Джибсон, Стэнли Таунсенд, Майкл Маркус Морган, Адам Томас Райт...

    Роли дублировали: Сергей Смирнов, Евгения Ваган

    Сюжет: Англия, XI век. Мать десятилетнего Роба Коула умирает в страшных мучениях: никто не знает ни природы её болезни, ни лекарства против неё. Маленький Роб, потрясенный до глубины души, во что бы то ни стало стремится разгадать эту тайну.
    Ему суждено пройти долгий путь, от Англии до Персии, его учителями становятся сначала обыкновенный шарлатан Барбер, а потом — великий лекарь Авиценна. Мудрый учитель видит в Робе необыкновенный талант к медицине, но советует ему не спешить делать вещи, которые не соответствуют веку. Но Роб ни перед чем не останавливается в своем желании научиться спасать людей от смерти, и над его собственной жизнью нависает угроза, ведь он дважды пошел против предрассудков: использовал для научных исследований тело человека и полюбил женщину, отданную в жены другому.



    Качество фильма: BDRip / Blu-ray 1080p
    Тип видео: AVI

    Информация о видео: 720x304 (2.35:1), 24.000 fps, XviD ~ 1571 kbps avg, 0.299 bit/pixel
    Информация о звуке: 48 kHz, Dolby AC3, 6 ch, 448 kbps, русский

    Раздача от:
    MediaInfo

    Общее
    Полное имя : Lekar.2013.D.BDRip_New-Team_by_avproh.avi
    Формат : AVI
    Формат/Информация : Audio Video Interleave
    Профиль формата : OpenDML
    Размер файла : 2,20 Гбайт
    Продолжительность : 2 ч. 34 м.
    Общий поток : 2031 Кбит/сек
    Программа кодирования : VirtualDubModRus 1.5.10.2 (build 2542/release)
    Библиотека кодирования : VirtualDubMod build 2542/release

    Видео
    Идентификатор : 0
    Формат : MPEG-4 Visual
    Профиль формата : Advanced Simple@L5
    Параметр BVOP формата : 1
    Параметр QPel формата : Нет
    Параметр GMC формата : Без точки перехода
    Параметр матрицы формата : Выборочная
    Идентификатор кодека : XVID
    Идентификатор кодека/Подсказка : XviD
    Продолжительность : 2 ч. 34 м.
    Битрейт : 1571 Кбит/сек
    Ширина : 720 пикселей
    Высота : 304 пикселя
    Соотношение сторон : 2,35:1
    Частота кадров : 24,000 кадра/сек
    Цветовое пространство : YUV
    Субдискретизация насыщенности : 4:2:0
    Битовая глубина : 8 бит
    Тип развёртки : Прогрессивная
    Метод сжатия : С потерями
    Бит/(Пиксели*Кадры) : 0.299
    Размер потока : 1,70 Гбайт (77%)
    Библиотека кодирования : XviD 73

    Аудио
    Идентификатор : 1
    Формат : AC-3
    Формат/Информация : Audio Coding 3
    Расширение режима : CM (complete main)
    Параметр Endianness формата : Big
    Идентификатор кодека : 2000
    Продолжительность : 2 ч. 34 м.
    Вид битрейта : Постоянный
    Битрейт : 448 Кбит/сек
    Каналы : 6 каналов
    Расположение каналов : Front: L C R, Side: L R, LFE
    Частота : 48,0 КГц
    Битовая глубина : 16 бит
    Метод сжатия : С потерями
    Размер потока : 496 Мбайт (22%)
    Выравнивание : Разделение по промежуткам
    Продолжительность промежутка : 42 мс. (1,00 видеокадр)
    Время предзагрузки промежутка : 500 мс.

    Скриншоты для ознакомления:



    Залил: avproh
    Размер скачиваемого торрента: 2.20 GB (2357954560 Bytes)

    Лекарь: Ученик Авиценны / The Physician (2013) BDRip от New-Team | D | лицензия скачать через торрент бесплатно
    загрузка...
    Рейтинг →
     (голосов: 1, оценка 4/5, голосовать можно 1 раз )

    Другие торренты по теме:

  • Лекарь: Ученик Авиценны (2013) торрент скачать бесплатно
  • OST - Лекарь: Ученик Авиценны / The Physician / Der Medicus (2014) MP3 скачать через торрент бесплатно
  • Лекарь: Ученик Авиценны / The Physician (2013) TS торрент скачать бесплатно
  • Лекарь: Ученик Авиценны / The Physician (2013) WEB-DLRip-AVC | iTunes торрент скачать бесплатно
  • Лекарь: Ученик Авиценны / The Physician (2013) WEB-DLRip | iTunes торрент скачать бесплатно
  • Лекарь: Ученик Авиценны / The Physician (2013) WEB-DL 720p | iTunes торрент скачать бесплатно
  • Лекарь: Ученик Авиценны / The Physician (2013) WEB-DLRip от Scarabey | D | iTunes торрент скачать бесплатно
  • Лекарь: Ученик Авиценны / The Physician (2013) BDRip 720p | Лицензия скачать через торрент бесплатно


    • Комментарии (0):

      Информация

      Информация

        Посетители, находящиеся в группе Гости, не могут оставлять комментарии в данной новости.

        ↓ Меню



        ↓ Опрос

        А Вы добавили сайт в закладки?
        Да
        Не


        Top 10 за неделю (Фильмы)