.
Авторизация | Регистрация
» » Поле битвы: Земля / Battlefield Earth: A Saga of the Year 3000 (2000) BDRip 1080p | 60 FPS скачать через торрент бесплатно




    Поле битвы: Земля / Battlefield Earth: A Saga of the Year 3000 (2000) BDRip 1080p | 60 FPS скачать через торрент бесплатно

    Опубликовал: Админ | Дата: 27-02-2015, 11:10 | Просмотров: 269

    Детально о кино
    Русское название: Поле битвы: Земля / Battlefield Earth: A Saga of the Year 3000
    Создали в: 2000
    Категория жанра: Фантастика, боевик, триллер
    Главный режиссер: Роджер Кристиан
    Актеры: Джон Траволта, Барри Пеппер, Форест Уитакер, Ким Коутс, Сабина Карсенти, Майкл Бирн, Кристиан Тессьер, Сильвен Ландри, Ричард Тайсон, Кристофер Фриман


    Сюжет фильма:
    3000 год. Уже десять веков Землей правит жестокая раса пришельцев. Поработив людей, гиганты Сайклосы превратили завоеванную планету в источник сырья для своего далекого мира. Избежавшие смерти и рабства земляне первобытными племенами рассеялись по горам и лесам. Но однажды, получив доступ к оружию и технологиям пришельцев, они поднимают восстание. Начинается новая звездная война, в которой одна из цивилизаций обречена на уничтожение…




    * Перед скачиванием обязательно проверьте Сэмпл на своем оборудовании.

    Инфо:

    В 2,5 раза больше кадров!
    В 2,5 раза больше исходника (1080p BDRip)!
    В 2,5 раза плавнее! (59,94 fps)
    Тех. данные

    Время просмотра: 01:59:02
    Снималось в: США, Battlefield Productions LLC, Franchise Pictures, JTP Films, Morgan Creek Productions, Warner Bros. Pictures
    Перевод текста: Дублированный, закадровый одноголосый на вставки


    Файл
    Тип видео: MKV
    Качество фильма: BDRip 1080p
    Информация о видео: MPEG-4 AVC/H.264, 1920x800, ~16000 kb/s
    Информация о звуке: Английский: AC3 2.0, 640 kb/s; русский: AC3 5.1, 448 kb/s
    MI:

    Общее
    Уникальный идентификатор : 253296948991022848530232082872629331989 (0xBE8F37C7884F48FCB0B6EB8D8A8E0815)
    Полное имя : F:Поле битвы земля.mkv
    Формат : Matroska
    Версия формата : Version 4 / Version 2
    Размер файла : 14,2 Гбайт
    Продолжительность : 1 ч. 59 м.
    Общий поток : 17,1 Мбит/сек
    Дата кодирования : UTC 2014-03-28 11:29:26
    Программа кодирования : mkvmerge v6.8.0 (;Theme for Great Cities;) 64bit built on Mar 2 2014 21:34:26
    Библиотека кодирования : libebml v1.3.0 libmatroska v1.4.1

    Видео
    Идентификатор : 1
    Формат : AVC
    Формат/Информация : Advanced Video Codec
    Профиль формата : High@L4.1
    Параметр CABAC формата : Да
    Параметр ReFrames формата : 5 кадров
    Идентификатор кодека : V_MPEG4/ISO/AVC
    Продолжительность : 1 ч. 59 м.
    Битрейт : 16,0 Мбит/сек
    Ширина : 1920 пикселей
    Высота : 1080 пикселей
    Соотношение сторон : 16:9
    Режим частоты кадров : Постоянный
    Частота кадров : 59,880 кадров/сек
    Частота кадров в оригинале : 59,940 кадров/сек
    Цветовое пространство : YUV
    Субдискретизация насыщенности : 4:2:0
    Битовая глубина : 8 бит
    Тип развёртки : Прогрессивная
    Бит/(Пиксели*Кадры) : 0.129
    Размер потока : 13,0 Гбайт (92%)
    Библиотека кодирования : x264 core 130 r2273 b3065e6
    Настройки программы : cabac=1 / ref=5 / deblock=1:-1:-1 / analyse=0x3:0 / me=umh / subme=9 / psy=1 / psy_rd=1.00:0.10 / mixed_ref=1 / me_range=24 / chroma_me=0 / trellis=1 / 8x8dct=1 / cqm=0 / deadzone=21,11 / fast_pskip=0 / chroma_qp_offset=-3 / threads=6 / lookahead_threads=1 / sliced_threads=0 / nr=0 / decimate=0 / interlaced=0 / bluray_compat=0 / constrained_intra=0 / bframes=5 / b_pyramid=2 / b_adapt=2 / b_bias=0 / direct=3 / weightb=1 / open_gop=0 / weightp=2 / keyint=250 / keyint_min=25 / scenecut=40 / intra_refresh=0 / rc=2pass / mbtree=0 / bitrate=16000 / ratetol=1.0 / qcomp=0.60 / qpmin=0 / qpmax=69 / qpstep=4 / cplxblur=20.0 / qblur=0.5 / ip_ratio=1.40 / pb_ratio=1.30 / aq=1:0.90
    Язык : English
    Default : Да
    Forced : Нет

    Аудио #1
    Идентификатор : 2
    Формат : AC-3
    Формат/Информация : Audio Coding 3
    Расширение режима : CM (complete main)
    Параметр Endianness формата : Big
    Идентификатор кодека : A_AC3
    Продолжительность : 1 ч. 59 м.
    Вид битрейта : Постоянный
    Битрейт : 640 Кбит/сек
    Каналы : 6 каналов
    Расположение каналов : Front: L C R, Side: L R, LFE
    Частота : 48,0 КГц
    Битовая глубина : 16 бит
    Метод сжатия : С потерями
    Размер потока : 545 Мбайт (4%)
    Заголовок : Original
    Язык : English
    Default : Нет
    Forced : Нет

    Аудио #2
    Идентификатор : 3
    Формат : AC-3
    Формат/Информация : Audio Coding 3
    Расширение режима : CM (complete main)
    Параметр Endianness формата : Big
    Идентификатор кодека : A_AC3
    Продолжительность : 1 ч. 59 м.
    Вид битрейта : Постоянный
    Битрейт : 448 Кбит/сек
    Каналы : 2 канала
    Расположение каналов : Front: L R
    Частота : 48,0 КГц
    Битовая глубина : 16 бит
    Метод сжатия : С потерями
    Размер потока : 382 Мбайт (3%)
    Заголовок : Dub MVO
    Язык : Russian
    Default : Да
    Forced : Нет

    Меню
    00:00:00.000 : en:Chapter 1
    00:06:35.061 : en:Chapter 2
    00:13:50.746 : en:Chapter 3
    00:20:53.167 : en:Chapter 4
    00:28:17.445 : en:Chapter 5
    00:37:17.360 : en:Chapter 6
    00:43:02.705 : en:Chapter 7
    00:51:56.655 : en:Chapter 8
    00:58:28.129 : en:Chapter 9
    01:06:12.301 : en:Chapter 10
    01:14:38.724 : en:Chapter 11
    01:22:17.349 : en:Chapter 12
    01:30:39.434 : en:Chapter 13
    01:35:59.670 : en:Chapter 14
    01:45:11.138 : en:Chapter 15
    01:51:50.286 : en:Chapter 16
    01:59:01.634 : en:Chapter 17
    Скриншоты для ознакомления



    Размер скачиваемого торрента: 14.20 GB (15248057148 Bytes)

    Поле битвы: Земля / Battlefield Earth: A Saga of the Year 3000 (2000) BDRip 1080p | 60 FPS скачать через торрент бесплатно
    загрузка...
    Рейтинг →
     (голосов: 1, оценка 4/5, голосовать можно 1 раз )

    Другие торренты по теме:

  • Поле битвы (Поле боя) / Aadukalam (2011) SATRip от Files-x | P торрент скачать бесплатно
  • Поле битвы - Земля / Battlefield Earth: A Saga of the Year 3000 (2000) DVDRip-AVC | D торрент скачать бесплатно
  • Поле битвы: Земля / Battlefield Earth / Battlefield Earth: A Saga of the Year 3000 (2000) BD-Remux | Расширенная Версия торрент скачать бесплатно
  • Озеро скелетов / Поле битвы / Skeleton Lake / Battleground (2012) BDRip 720p от CINEMANIA | НТВ скачать через торрент бесплатно
  • Озеро скелетов / Поле битвы / Skeleton Lake / Battleground (2012) BDRip 1080p от CINEMANIA | НТВ скачать через торрент бесплатно
  • Поле битвы: Земля / Battlefield Earth: A Saga of the Year 3000 (2000) WEB-DLRip-AVC скачать торрент бесплатно
  • Поле битвы: Земля / Battlefield Earth: A Saga of the Year 3000 (2000) WEB-DL 720p | D скачать торрент бесплатно
  • Поле битвы: Земля / Battlefield Earth: A Saga of the Year 3000 (2000) WEB-DLRip-AVC | D, P2 скачать торрент бесплатно


    • Комментарии (0):

      Информация

      Информация

        Посетители, находящиеся в группе Гости, не могут оставлять комментарии в данной новости.

        ↓ Меню



        ↓ Опрос

        А Вы добавили сайт в закладки?
        Да
        Не


        Top 10 за неделю (Фильмы)