.
Авторизация | Регистрация
» » Воспитывая Аризону / Raising Arizonay (1987) BDRip-AVC | iPad | P2 скачать через торрент бесплатно




    Воспитывая Аризону / Raising Arizonay (1987) BDRip-AVC | iPad | P2 скачать через торрент бесплатно

    Опубликовал: Админ | Дата: 27-02-2015, 11:10 | Просмотров: 197



    Воспитывая Аризону / Raising Arizonay (1987) BDRip-AVC | iPad | P2

    Русское название: Воспитывая Аризону
    Русское название в мировом прокате: Raising Arizona
    Создали в: 1987
    Категория жанра: комедия, криминал, детектив, приключения
    Главный режиссер: Джоэл Коэн, Итэн Коэн
    Актеры: Николас Кейдж, Холли Хантер, Трей Уилсон, Джон Гудмен, Уильям Форсайт, Сэм МакМюррей, Фрэнсис МакДорманд, Рэндал Текс Кобб, Т.Дж. Кун, Линн Китей

    Сюжет фильма:
    Хай был мелким грабителем. Эдвина служила в полиции. Они встречались регулярно — после того, как его в очередной раз хватали и везли в кутузку. А потом Хай и Эдвина поженились.
    Эта странная пара была вполне счастлива, но у них не было детей, и тогда они решили похитить младенца, чтобы было кого воспитывать…



    Снималось в: США
    Киностудия: Circle Films
    Время просмотра: 1:34:06
    Перевод текста: Русский профессиональный двухголосый закадровый

    Файл
    Кодек для видео: H.264
    Качество фильма: BDRip-AVC 576p
    Информация о видео: 1024x556 (1.85:1) at 23.976 fps, AVC at 3370 kbps
    Информация о звуке:
    1: АAС 2.0 136 kbps - Русский профессиональный двухголосый закадровый
    2: АAС 2.0 136 kbps - Английский
    Субтитры: отсутствуют

    MI

    General
    Complete name : C:CREATE264mod0outRaising.Arizona.1987.BDRip.576p.P2.m4v
    Format : MPEG-4
    Codec ID : M4V
    File size : 2.40 GiB
    Duration : 1h 34mn
    Overall bit rate mode : Variable
    Overall bit rate : 3 658 Kbps
    Movie name : Воспитание Аризоны
    Performer : Joel Coen
    Genre : Comedy
    ContentType : Short Film
    Deion : Хай был мелким грабителем. Эдвина служила в полиции. Они встречались регулярно — после того, как его в очередной раз хватали и везли в кутузку. А потом Хай и Эдвина поженились. Эта странная пара была вполне счастлива, но у них не было детей...
    Recorded date : UTC 1987-03-13 08:00:00
    Encoded date : UTC 2014-03-28 13:45:52
    Tagged date : UTC 2014-03-28 13:49:51
    Copyright : 20th Century Fox
    Cover : Yes
    Comment : A comedy beyond belief
    ContentRating : mpaa|PG-13|300|

    Title/Sort : Raising Arizona
    LongDeion : Хай был мелким грабителем. Эдвина служила в полиции. Они встречались регулярно — после того, как его в очередной раз хватали и везли в кутузку. А потом Хай и Эдвина поженились. Эта странная пара была вполне счастлива, но у них не было детей, и тогда они решили похитить младенца, чтобы было кого воспитывать…
    AppleStoreCatalogID : 270425042
    Vendor : Apple:vendor_id:1987-2796

    Video
    ID : 1
    Format : AVC
    Format/Info : Advanced Video Codec
    Format profile : High@L4.1
    Format settings, CABAC : Yes
    Format settings, ReFrames : 9 frames
    Codec ID : avc1
    Codec ID/Info : Advanced Video Coding
    Duration : 1h 34mn
    Bit rate : 3 374 Kbps
    Maximum bit rate : 15.9 Mbps
    Width : 1 024 pixels
    Height : 556 pixels
    Display aspect ratio : 1.85:1
    Frame rate mode : Constant
    Frame rate : 23.976 fps
    Color space : YUV
    Chroma subsampling : 4:2:0
    Bit depth : 8 bits
    Scan type : Progressive
    Bits/(Pixel*Frame) : 0.247
    Stream size : 2.22 GiB (92%)
    Title : Raising Arizona _1987_
    Language : English
    Encoded date : UTC 2014-03-28 13:45:52
    Tagged date : UTC 2014-03-28 13:46:03
    Matrix coefficients : BT.709

    Audio #1
    ID : 2
    Format : AAC
    Format/Info : Advanced Audio Codec
    Format profile : LC
    Codec ID : 40
    Duration : 1h 34mn
    Bit rate mode : Variable
    Bit rate : 138 Kbps
    Maximum bit rate : 182 Kbps
    Channel(s) : 2 channels
    Channel positions : Front: L R
    Sampling rate : 48.0 KHz
    Compression mode : Lossy
    Stream size : 92.6 MiB (4%)
    Title : DVO
    Language : Russian
    Encoded date : UTC 2014-03-28 13:42:42
    Tagged date : UTC 2014-03-28 13:46:03

    Audio #2
    ID : 3
    Format : AAC
    Format/Info : Advanced Audio Codec
    Format profile : LC
    Codec ID : 40
    Duration : 1h 34mn
    Bit rate mode : Variable
    Bit rate : 132 Kbps
    Maximum bit rate : 172 Kbps
    Channel(s) : 2 channels
    Channel positions : Front: L R
    Sampling rate : 48.0 KHz
    Compression mode : Lossy
    Stream size : 88.3 MiB (4%)
    Title : Original
    Language : English
    Encoded date : UTC 2014-03-28 13:44:17
    Tagged date : UTC 2014-03-28 13:46:03

    Menu
    ID : 4
    Codec ID : text
    Duration : 1h 34mn
    Encoded date : UTC 2014-03-28 13:46:26
    Tagged date : UTC 2014-03-28 13:46:26
    Bit rate mode : CBR

    iTunes tags

    Sort Name: Raising Arizona
    XID: Apple:vendor_id:1987-2796
    Content ID: 270425042
    Copyright: 20th Century Fox
    ScreenWriters: Итан Коэн, Джоэл Коэн
    Producers: Итан Коэн, Джеймс Джекс, Дебора Рейниш
    Director: Джоэл Коэн, Итан Коэн
    Cast: Николас Кейдж, Холли Хантер, Трей Уилсон, Джон Гудман, Уильям Форсайт, Сэм МакМюррей, Фрэнсис МакДорманд, Рэндал Текс Кобб, Т.Дж. Кун, Линн Китей // Nicolas Cage (H.I. McDunnough), Holly Hunter (Edwina ;Ed; McDunnough), Trey Wilson (Nathan Arizona Huffhines, Sr.), John Goodman (Gale Snoats), William Forsythe (Evelle Snoats), Sam McMurray (Glen), Frances McDormand (Dot), Randall Tex Cobb (Leonard Smalls), T.J. Kuhn (Nathan Arizona, Jr.), Lynne Kitei (Florence Arizona)
    Rating: PG-13
    Long Deion: Хай был мелким грабителем. Эдвина служила в полиции. Они встречались регулярно — после того, как его в очередной раз хватали и везли в кутузку. А потом Хай и Эдвина поженились. Эта странная пара была вполне счастлива, но у них не было детей, и тогда они решили похитить младенца, чтобы было кого воспитывать…
    Deion: Хай был мелким грабителем. Эдвина служила в полиции. Они встречались регулярно — после того, как его в очередной раз хватали и везли в кутузку. А потом Хай и Эдвина поженились. Эта странная пара была вполне счастлива, но у них не было детей...
    Release Date: 1987-03-13T08:00:00Z
    Genre: Comedy
    Artist: Joel Coen
    Name: Воспитание Аризоны
    Comments: A comedy beyond belief
    x264

    x264 info: frame I:1047 Avg QP:16.60 size:130555
    x264 info: frame P:30408 Avg QP:19.74 size: 41858
    x264 info: frame B:103921 Avg QP:22.63 size: 9352
    x264 info: consecutive B-frames: 3.1% 1.6% 7.4% 19.3% 23.0% 42.3% 1.8% 0.9% 0.2% 0.2% 0.0% 0.0% 0.1% 0.1% 0.1%
    x264 info: mb I I16..4: 6.1% 73.4% 20.6%
    x264 info: mb P I16..4: 0.3% 10.2% 1.0% P16..4: 26.5% 34.0% 17.9% 3.4% 0.5% skip: 6.2%
    x264 info: mb B I16..4: 0.0% 1.4% 0.1% B16..8: 35.4% 15.5% 2.8% direct: 3.8% skip:40.9% L0:39.8% L1:44.0% BI:16.1%
    x264 info: 8x8 transform intra:87.0% inter:57.6%
    x264 info: coded y,uvDC,uvAC intra: 95.6% 91.4% 75.3% inter: 26.0% 21.6% 11.7%
    x264 info: i16 v,h,dc,p: 21% 22% 13% 44%
    x264 info: i8 v,h,dc,ddl,ddr,vr,hd,vl,hu: 8% 8% 8% 10% 15% 13% 13% 12% 13%
    x264 info: i4 v,h,dc,ddl,ddr,vr,hd,vl,hu: 12% 8% 5% 9% 16% 14% 13% 11% 12%
    x264 info: i8c dc,h,v,p: 43% 21% 16% 19%
    x264 info: Weighted P-Frames: Y:7.5% UV:4.5%
    x264 info: ref P L0: 52.4% 13.3% 13.7% 6.3% 4.5% 3.5% 2.8% 1.7% 1.5% 0.2% 0.0%
    x264 info: ref B L0: 88.5% 4.8% 2.8% 1.3% 1.0% 0.7% 0.6% 0.3%
    x264 info: ref B L1: 96.9% 3.1%
    x264 info: kb/s:3374.08




    Залил: gekka
    Размер скачиваемого торрента: 2.40 GB (2581818327 Bytes)

    Воспитывая Аризону / Raising Arizonay (1987) BDRip-AVC | iPad | P2 скачать через торрент бесплатно
    загрузка...
    Рейтинг →
     (голосов: 1, оценка 3/5, голосовать можно 1 раз )

    Другие торренты по теме:

  • Воспитывая Аризону / Raising Arizonay (1987) BDRip 720p | P2 скачать через торрент бесплатно


    • Комментарии (0):

      Информация

      Информация

        Посетители, находящиеся в группе Гости, не могут оставлять комментарии в данной новости.

        ↓ Меню



        ↓ Опрос

        А Вы добавили сайт в закладки?
        Да
        Не


        Top 10 за неделю (Фильмы)