.
Авторизация | Регистрация
» » Элизиум: Рай не на Земле / Elysium (2013) BDRip 1080p | 60 FPS скачать через торрент бесплатно




    Элизиум: Рай не на Земле / Elysium (2013) BDRip 1080p | 60 FPS скачать через торрент бесплатно

    Опубликовал: Админ | Дата: 27-02-2015, 11:10 | Просмотров: 220

    Детально о кино
    Русское название: Элизиум: Рай не на Земле / Elysium
    Создали в: 2013
    Категория жанра: Фантастика, боевик, триллер
    Главный режиссер: Нил Бломкамп
    Актеры: Мэтт Дэймон, Алиси Брага, Шарлто Копли, Джоди Фостер, Вагнер Моура, Эмма Тремблэ, Диего Луна, Уильям Фихтнер, Фаран Таир, Максвелл Перри Коттон


    Сюжет фильма:
    В 2154 году существует два класса людей: очень богатые, живущие на чистой, созданной руками человека, космической станции под названием Элизиум и остальные, живущие на перенаселённой разрушенной Земле. Безжалостный правительственный чиновник, амбициозная министр обороны Делакур, не остановится ни перед чем для применения анти-иммиграционных законов и сохранения роскошного образа жизни граждан Элизиума. Когда неудачника Макса загоняют в угол, он соглашается взять на себя сложную миссию, которая в случае успеха не только спасёт ему жизнь, но и может привести к равенству этих поляризованных миров.




    * Перед скачиванием обязательно проверьте Сэмпл на своем оборудовании.

    Инфо:

    В 2,5 раза больше кадров!
    В 2,5 раза больше исходника (1080p BDrip)!
    В 2,5 раза плавнее! (59,94 fps)
    Тех. данные

    Время просмотра: 01:49:36
    Снималось в: США, Media Rights Capital, QED International, Simon Kinberg Productions, Sony Pictures Entertainment (SPE), TriStar Pictures
    Перевод текста: Дублированный
    Язык субтитров: Rus (форс.), Rus (полные), Eng (форс.), Eng (полные)
    Вид субтитров: Вшитые


    Файл
    Тип видео: MKV
    Качество фильма: BDRip 1080p
    Информация о видео: MPEG-4 AVC/H.264, 1920x800, ~16000 kb/s
    Информация о звуке: Русский: AC3 5.1, 640 kb/s, английский: AC3 5.1, 640 kb/s
    MI:

    Общее
    Уникальный идентификатор : 221956395860583858955215538035614672015 (0xA6FB3F35BB140D7AB35E986EEDB1E48F)
    Полное имя : F:Элизиум Рай не на Земле.mkv
    Формат : Matroska
    Версия формата : Version 4 / Version 2
    Размер файла : 13,2 Гбайт
    Продолжительность : 1 ч. 49 м.
    Общий поток : 17,3 Мбит/сек
    Дата кодирования : UTC 2014-03-28 03:55:51
    Программа кодирования : mkvmerge v6.8.0 (;Theme for Great Cities;) 64bit built on Mar 2 2014 21:34:26
    Библиотека кодирования : libebml v1.3.0 libmatroska v1.4.1

    Видео
    Идентификатор : 1
    Формат : AVC
    Формат/Информация : Advanced Video Codec
    Профиль формата : High@L4.1
    Параметр CABAC формата : Да
    Параметр ReFrames формата : 5 кадров
    Идентификатор кодека : V_MPEG4/ISO/AVC
    Продолжительность : 1 ч. 49 м.
    Битрейт : 16,0 Мбит/сек
    Ширина : 1920 пикселей
    Высота : 800 пикселей
    Соотношение сторон : 2,40:1
    Режим частоты кадров : Постоянный
    Частота кадров : 59,880 кадров/сек
    Частота кадров в оригинале : 59,940 кадров/сек
    Цветовое пространство : YUV
    Субдискретизация насыщенности : 4:2:0
    Битовая глубина : 8 бит
    Тип развёртки : Прогрессивная
    Бит/(Пиксели*Кадры) : 0.174
    Размер потока : 12,0 Гбайт (91%)
    Библиотека кодирования : x264 core 130 r2273 b3065e6
    Настройки программы : cabac=1 / ref=5 / deblock=1:-1:-1 / analyse=0x3:0 / me=umh / subme=9 / psy=1 / psy_rd=1.00:0.10 / mixed_ref=1 / me_range=24 / chroma_me=0 / trellis=1 / 8x8dct=1 / cqm=0 / deadzone=21,11 / fast_pskip=0 / chroma_qp_offset=-3 / threads=6 / lookahead_threads=1 / sliced_threads=0 / nr=0 / decimate=0 / interlaced=0 / bluray_compat=0 / constrained_intra=0 / bframes=5 / b_pyramid=2 / b_adapt=2 / b_bias=0 / direct=3 / weightb=1 / open_gop=0 / weightp=2 / keyint=250 / keyint_min=25 / scenecut=40 / intra_refresh=0 / rc=2pass / mbtree=0 / bitrate=16000 / ratetol=1.0 / qcomp=0.60 / qpmin=0 / qpmax=69 / qpstep=4 / cplxblur=20.0 / qblur=0.5 / ip_ratio=1.40 / pb_ratio=1.30 / aq=1:0.90
    Язык : English
    Default : Да
    Forced : Нет

    Аудио #1
    Идентификатор : 2
    Формат : AC-3
    Формат/Информация : Audio Coding 3
    Расширение режима : CM (complete main)
    Параметр Endianness формата : Big
    Идентификатор кодека : A_AC3
    Продолжительность : 1 ч. 49 м.
    Вид битрейта : Постоянный
    Битрейт : 640 Кбит/сек
    Каналы : 6 каналов
    Расположение каналов : Front: L C R, Side: L R, LFE
    Частота : 48,0 КГц
    Битовая глубина : 16 бит
    Метод сжатия : С потерями
    Размер потока : 502 Мбайт (4%)
    Заголовок : Dub
    Язык : Russian
    Default : Да
    Forced : Нет

    Аудио #2
    Идентификатор : 7
    Формат : AC-3
    Формат/Информация : Audio Coding 3
    Расширение режима : CM (complete main)
    Параметр Endianness формата : Big
    Идентификатор кодека : A_AC3
    Продолжительность : 1 ч. 49 м.
    Вид битрейта : Постоянный
    Битрейт : 640 Кбит/сек
    Каналы : 6 каналов
    Расположение каналов : Front: L C R, Side: L R, LFE
    Частота : 48,0 КГц
    Битовая глубина : 16 бит
    Метод сжатия : С потерями
    Размер потока : 502 Мбайт (4%)
    Заголовок : Original
    Язык : English
    Default : Нет
    Forced : Нет

    Текст #1
    Идентификатор : 3
    Формат : UTF-8
    Идентификатор кодека : S_TEXT/UTF8
    Идентификатор кодека/Информация : UTF-8 Plain Text
    Заголовок : Forced
    Язык : Russian
    Default : Да
    Forced : Нет

    Текст #2
    Идентификатор : 4
    Формат : UTF-8
    Идентификатор кодека : S_TEXT/UTF8
    Идентификатор кодека/Информация : UTF-8 Plain Text
    Заголовок : Full
    Язык : Russian
    Default : Нет
    Forced : Нет

    Текст #3
    Идентификатор : 5
    Формат : UTF-8
    Идентификатор кодека : S_TEXT/UTF8
    Идентификатор кодека/Информация : UTF-8 Plain Text
    Заголовок : Forced
    Язык : English
    Default : Нет
    Forced : Нет

    Текст #4
    Идентификатор : 6
    Формат : UTF-8
    Идентификатор кодека : S_TEXT/UTF8
    Идентификатор кодека/Информация : UTF-8 Plain Text
    Заголовок : Full
    Язык : English
    Default : Нет
    Forced : Нет

    Меню
    00:00:00.000 : en:Chapter 1
    00:07:02.589 : en:Chapter 2
    00:11:59.344 : en:Chapter 3
    00:19:27.625 : en:Chapter 4
    00:25:34.825 : en:Chapter 5
    00:30:02.342 : en:Chapter 6
    00:39:22.068 : en:Chapter 7
    00:57:43.960 : en:Chapter 8
    01:00:59.197 : en:Chapter 9
    01:04:09.637 : en:Chapter 10
    01:07:22.664 : en:Chapter 11
    01:10:34.147 : en:Chapter 12
    01:16:59.865 : en:Chapter 13
    01:22:50.132 : en:Chapter 14
    01:30:19.914 : en:Chapter 15
    01:35:44.530 : en:Chapter 16
    Скриншоты для ознакомления



    Размер скачиваемого торрента: 13.23 GB (14205355173 Bytes)

    Элизиум: Рай не на Земле / Elysium (2013) BDRip 1080p | 60 FPS скачать через торрент бесплатно
    загрузка...
    Рейтинг →
     (голосов: 1, оценка 5/5, голосовать можно 1 раз )

    Другие торренты по теме:

  • Элизиум: Рай не на Земле / Elysium (2013) CAMRip торрент скачать бесплатно
  • Элизиум: Рай не на Земле / Elysium (2013) CAMRip торрент скачать бесплатно
  • Элизиум: Рай не на Земле / Elysium (2013) CAMRip *PROPER* от INTERCINEMA торрент скачать бесплатно
  • Элизиум: Рай не на Земле / Elysium (2013) TS торрент скачать бесплатно
  • Элизиум: Рай не на Земле / Elysium (2013) TS *PROPER* от INTERCINEMA торрент скачать бесплатно
  • Элизиум: Рай не на Земле / Elysium (2013) DVDScreener торрент скачать бесплатно
  • Элизиум: Рай не на Земле / Elysium (2013) WEBRip торрент скачать бесплатно
  • Элизиум: Рай не на Земле / Elysium (2013) WEBRip от Один 777 скачать через торрент бесплатно


    • Комментарии (0):

      Информация

      Информация

        Посетители, находящиеся в группе Гости, не могут оставлять комментарии в данной новости.

        ↓ Меню



        ↓ Опрос

        А Вы добавили сайт в закладки?
        Да
        Не


        Top 10 за неделю (Фильмы)