.
Авторизация | Регистрация
Хочешь лучшие торренты? Добавь свой email!
Добавить
» » Спартак: Война проклятых / Spartacus: War of the Damned (2013) BDRip 720p | РЕН-ТВ скачать через торрент бесплатно




    Спартак: Война проклятых / Spartacus: War of the Damned (2013) BDRip 720p | РЕН-ТВ скачать через торрент бесплатно

    Опубликовал: Админ | Дата: 27-02-2015, 11:10 | Просмотров: 233


    Детально о кино
    Русское название: Спартак: Война проклятых / Spartacus: War of the Damned
    Создали в: 2013
    Категория жанра: Боевик, драма, приключения, биография, история
    Главный режиссер: Рик Джейкобсон
    Актеры: Лиам МакИнтайр, Ману Беннетт, Ричард Нортон, Дастин Клер, Дэниэл Фьюрриджел, Синтия Аддай-Робинсон, Саймон Меррелс, Эллен Холлман, Дитч Дэвей, Пена Хема Тейлор


    Сюжет:
    Спартак — это жесткий и выразительный рассказ о самом знаменитом из римских гладиаторов. Спартака разлучили с любовью всей его жизни и заставили выходить на арену, где смерть — лучшее развлечение для толпы. Спартак должен бороться за выживание, подружиться с врагами, и усвоить политику нового мира жестокости, секса и славы. Его будут соблазнять властью и изводить местью. Но его страсть даст ему силы преодолеть все испытания в этой истории о смерти, чести и стойкости.





    Список серий:

    01. Враги Рима / Enemies of Rome
    02. Волки у ворот / Wolves at the Gate
    03. Люди чести / Men of Honor
    04. Децимация / Decimation
    Кстати:


    По завершении первого сезон любимого сериалаа производство сериала было приостановлено в связи с неожиданной диагностикой рака у Энди Уитфилда, исполняющего роль Спартака. Продюсеры собирались ждать выздоровления актера и не приступать до тех пор к съемкам второго сезон любимого сериалаа, но когда болезнь начала прогрессировать, и Уитфилд окончательно покинул сериал, был проведен рекастинг, и на главную роль выбрали Лиама Макинтайера. Энди Уитфилд скончался в сентябре 2011 года.
    Релиз:

    Автор дубляжа: РЕН-ТВ
    Автор релиза: miha2154

    РЕН-ТВ сократили полную версию эпизодов, поэтому местами дублированный перевод отсутствует.
    Тех. данные


    Время просмотра: 04 x ~ 00:56:00
    Снималось в: США, Starz Media, Starz Productions
    Перевод текста: Дублированный РЕН-ТВ


    Файл
    Тип видео: MKV
    Качество фильма: BDRip 720p
    Информация о видео: XviD, 1314 Кбит/с, 720x304
    Информация о звуке: AC3, 6 ch, 384 Кбит/с
    MI:

    General
    Complete name : C:музыкаНовая папкаSpartacus.War.Of.The.Damned.S03.Season.3.720p.BluRay.x264spartacus.war.of.the.damned.s03e01.720p.bluray.x264.dub.mkv
    Format : Matroska
    File size : 2.04 GiB
    Duration : 51mn 27s
    Overall bit rate : 5 685 Kbps
    Encoded date : UTC 2014-03-27 17:05:45
    Writing application : mkvmerge v4.0.0 (;The Stars were mine;) сборка от Jun 6 2010 16:18:42
    Writing library : libebml v1.0.0 libmatroska v1.0.0

    Video
    ID : 1
    Format : AVC
    Format/Info : Advanced Video Codec
    Format profile : High@L4.1
    Format settings, CABAC : Yes
    Format settings, ReFrames : 5 frames
    Muxing mode : Container profile=Unknown@4.1
    Codec ID : V_MPEG4/ISO/AVC
    Duration : 51mn 24s
    Bit rate : 5 188 Kbps
    Nominal bit rate : 5 301 Kbps
    Width : 1 280 pixels
    Height : 720 pixels
    Display aspect ratio : 16:9
    Frame rate : 23.976 fps
    Resolution : 8 bits
    Colorimetry : 4:2:0
    Scan type : Progressive
    Bits/(Pixel*Frame) : 0.235
    Stream size : 1.86 GiB (91%)
    Title : X264
    Writing library : x264 core 130 r2273 b3065e6
    Encoding settings : cabac=1 / ref=5 / deblock=1:0:0 / analyse=0x3:0x133 / me=umh / subme=7 / psy=1 / psy_rd=1.00:0.00 / mixed_ref=1 / me_range=16 / chroma_me=1 / trellis=1 / 8x8dct=1 / cqm=0 / deadzone=21,11 / fast_pskip=0 / chroma_qp_offset=-2 / threads=36 / lookahead_threads=5 / sliced_threads=0 / nr=0 / decimate=1 / interlaced=0 / bluray_compat=0 / constrained_intra=0 / bframes=3 / b_pyramid=2 / b_adapt=1 / b_bias=0 / direct=1 / weightb=1 / open_gop=0 / weightp=2 / keyint=250 / keyint_min=23 / scenecut=40 / intra_refresh=0 / rc_lookahead=40 / rc=2pass / mbtree=1 / bitrate=5301 / ratetol=1.0 / qcomp=0.60 / qpmin=0 / qpmax=69 / qpstep=4 / cplxblur=20.0 / qblur=0.5 / ip_ratio=1.40 / aq=1:1.00

    Audio #1
    ID : 2
    Format : AC-3
    Format/Info : Audio Coding 3
    Codec ID : A_AC3
    Duration : 51mn 27s
    Bit rate mode : Constant
    Bit rate : 192 Kbps
    Channel(s) : 2 channels
    Channel positions : Front: L R
    Sampling rate : 48.0 KHz
    Stream size : 70.7 MiB (3%)

    Audio #2
    ID : 3
    Format : AC-3
    Format/Info : Audio Coding 3
    Codec ID : A_AC3
    Duration : 51mn 27s
    Bit rate mode : Constant
    Bit rate : 192 Kbps
    Channel(s) : 2 channels
    Channel positions : Front: L R
    Sampling rate : 48.0 KHz
    Stream size : 70.7 MiB (3%)
    Скриншоты для ознакомления



    Размер скачиваемого торрента: 8.12 GB (8717480682 Bytes)

    Спартак: Война проклятых / Spartacus: War of the Damned (2013) BDRip 720p | РЕН-ТВ скачать через торрент бесплатно
    загрузка...
    Рейтинг →
     (голосов: 1, оценка 5/5, голосовать можно 1 раз )

    Другие торренты по теме:

  • Спартак: Война проклятых / Spartacus: War of the Damned (2013) HDTVRip | L1
  • OST - Спартак: Война проклятых / Spartacus: War Of The Damned (2013) MP3
  • Спартак: Война проклятых / Spartacus: War of the Damned (2013) HDTVRip от Scarabey | LostFilm
  • Спартак: Война проклятых / Spartacus: War of the Damned (2013) HDRip | РЕН-ТВ скачать через торрент бесплатно
  • Спартак: Война проклятых / Spartacus: War of the Damned (2013) HDRip от Scarabey | LostFilm скачать через торрент бесплатно


    • Комментарии (0):

      Информация

      Информация

        Посетители, находящиеся в группе Гости, не могут оставлять комментарии в данной новости.

        ↓ Меню



        ↓ Опрос

        А Вы добавили сайт в закладки?
        Да
        Не


        Top 10 за месяц (Фильмы)