.
Авторизация | Регистрация
Хочешь лучшие торренты? Добавь свой email!
Добавить
» » И явился Дьявол / Ahi va el diablo / Here Comes the Devil (2012) BDRip-AVC | L1 торрент скачать бесплатно




    И явился Дьявол / Ahi va el diablo / Here Comes the Devil (2012) BDRip-AVC | L1 торрент скачать бесплатно

    Опубликовал: Админ | Дата: 27-02-2015, 11:10 | Просмотров: 245



    Детально о кино
    Русское название: И явился Дьявол
    Русское название в мировом прокате: Ahi va el diablo / Here Comes the Devil
    Создали в: 2012
    Категория жанра: ужасы, триллер
    Главный режиссер: Адриан Гарсия Боглиано
    Актеры: Франциско Баррейро, Лаура Каро, Алан Мартинез, Мишель Гарсиа, Энрике Сен-Мартен, Мишель Эстрада, Джесика Ирис, Дана Дорел

    Сюжет фильма:
    Муж с женой вместе с детьми поехали на отдых. Чтобы дети не мешали родителям заниматься взрослыми утехами, они отпустили их на прогулку одних. Во время занятий любовью, родители не заметили течения времени и не обратили внимание на то, что дети должны были давно уже вернуться. Их поисками занялась полиция. И находит детей спустя сутки. Казалось бы: все хорошо. Но после общения детей с психологом, тот замечает, что ребята были подвергнуты сексуальному насилию. Дети же молчат и ничего не говорят о произошедшем, а в доме, между тем, начинают происходить странные вещи...




    Снималось в: Мексика, США
    Киностудия: Morbido Films, MPI Media Group, Salto de Fe Films
    Время просмотра: 01:37:37
    Перевод текста: Любительское (одноголосое) ХихиДок

    Файл
    Кодек для видео: h.264
    Качество фильма: BDRip-AVC
    Информация о видео: AVC, 1024 x 432, ~1983 kbps
    Информация о звуке: Русский: AC-3, 2 ch, 192 kbps / Испанский: AC-3, 6 ch, 448 kbps
    Субтитры: Английский

    ВНИМАНИЕ!!! Запрещен к просмотру, лицам младше 18 лет!

    Семпл

    Скриншоты для ознакомления
    MI
    Общее
    Уникальный идентификатор : 168348648403719580577546155723716462494 (0x7EA6C532C2870C1E037BA147C20E879E)
    Полное имя : H:И явился Дьявол Ahi va el diablo Here Comes the Devil (2012) BDRip-AVCHere.Comes.The.Devil.2012.BDRip-AVC.mkv
    Формат : Matroska
    Версия формата : Version 2
    Размер файла : 1,83 Гбайт
    Продолжительность : 1 ч. 37 м.
    Режим общего битрейта : Переменный
    Общий поток : 2676 Кбит/сек
    Программа кодирования : Lavf51.12.1
    Библиотека кодирования : Lavf51.12.1

    Видео
    Идентификатор : 1
    Формат : AVC
    Формат/Информация : Advanced Video Codec
    Профиль формата : Baseline@L3.1
    Параметр CABAC формата : Нет
    Параметр ReFrames формата : 1 кадр
    Параметр GOP формата : M=1, N=12
    Идентификатор кодека : V_MPEG4/ISO/AVC
    Продолжительность : 1 ч. 37 м.
    Вид битрейта : Переменный
    Битрейт : 1983 Кбит/сек
    Максимальный битрейт : 3090 Кбит/сек
    Ширина : 1024 пикселя
    Высота : 432 пикселя
    Соотношение сторон : 2,40:1
    Режим частоты кадров : Постоянный
    Частота кадров : 23,976 кадра/сек
    Частота кадров в оригинале : 24,000 кадра/сек
    Цветовое пространство : YUV
    Субдискретизация насыщенности : 4:2:0
    Битовая глубина : 8 бит
    Тип развёртки : Прогрессивная
    Бит/(Пиксели*Кадры) : 0.187
    Размер потока : 1,35 Гбайт (74%)
    Язык : English
    Default : Да
    Forced : Нет

    Аудио #1
    Идентификатор : 2
    Формат : AC-3
    Формат/Информация : Audio Coding 3
    Расширение режима : CM (complete main)
    Параметр Endianness формата : Big
    Идентификатор кодека : A_AC3
    Продолжительность : 1 ч. 37 м.
    Вид битрейта : Постоянный
    Битрейт : 192 Кбит/сек
    Каналы : 2 канала
    Расположение каналов : Front: L R
    Частота : 48,0 КГц
    Битовая глубина : 16 бит
    Метод сжатия : С потерями
    Размер потока : 134 Мбайт (7%)
    Язык : Russian
    Default : Да
    Forced : Нет

    Аудио #2
    Идентификатор : 4
    Формат : AC-3
    Формат/Информация : Audio Coding 3
    Расширение режима : CM (complete main)
    Параметр Endianness формата : Big
    Идентификатор кодека : A_AC3
    Продолжительность : 1 ч. 37 м.
    Вид битрейта : Постоянный
    Битрейт : 448 Кбит/сек
    Каналы : 6 каналов
    Расположение каналов : Front: L C R, Side: L R, LFE
    Частота : 48,0 КГц
    Битовая глубина : 16 бит
    Метод сжатия : С потерями
    Размер потока : 313 Мбайт (17%)
    Язык : Spanish
    Default : Да
    Forced : Нет

    Текст
    Идентификатор : 3
    Формат : UTF-8
    Идентификатор кодека : S_TEXT/UTF8
    Идентификатор кодека/Информация : UTF-8 Plain Text
    Язык : English
    Default : Да
    Forced : Нет

    Размер скачиваемого торрента: 1.83 GB (1959728589 Bytes)

    И явился Дьявол / Ahi va el diablo / Here Comes the Devil (2012) BDRip-AVC | L1 торрент скачать бесплатно
    загрузка...
    Рейтинг →
     (голосов: 1, оценка 5/5, голосовать можно 1 раз )

    Другие торренты по теме:



      Комментарии (0):

      Информация

      Информация

        Посетители, находящиеся в группе Гости, не могут оставлять комментарии в данной новости.

        ↓ Меню



        ↓ Опрос

        А Вы добавили сайт в закладки?
        Да
        Не


        Top 10 за месяц (Фильмы)