.
Авторизация | Регистрация
» » Сэйв-Харбор / Safe Harbor (2009) DVB от MediaClub | P торрент скачать бесплатно




    Сэйв-Харбор / Safe Harbor (2009) DVB от MediaClub | P торрент скачать бесплатно

    Опубликовал: Админ | Дата: 27-02-2015, 11:10 | Просмотров: 184



    Детально о кино
    Русское название: Сэйв-Харбор
    Русское название в мировом прокате: Safe Harbor
    Создали в: 2009
    Категория жанра: Драма
    Главный режиссер: Джерри Джеймсон
    Актеры: Трит Уильямс, Нэнси Трэвис, Рейли МакКлендон, Мира Терли, Камерон Монахэн, Джастин Олстон, Орсон Бин, Дэниэл Берилла, Джон Колтон, Памела Грэй

    Сюжет фильма:
    Даг и Робби Смит счастливая супружеская пара после выхода на пенсию собираются путешествовать по миру на своей парусной яхте. Их лучший друг, судья Дэвид просит чтобы они позаботились о двух трудных подростках которым грозит тюрьма, а мальчики могут помочь им подготовить яхту к отплытию. Супруги соглашаются и вскоре берут еще двух подростков под свою опеку. Общение с мальчиками изменяет их жизнь и планы. Они видят как подростки меняются в лучшею сторону и решают остаться в городе и открыть приют.



    Снималось в: США
    Киностудия: Bright World, Daniel L. Paulson Productions (DLP Productions), Silver Screen Pictures
    Время просмотра: 01:25:29
    Перевод текста: Профессиональный многоголосый

    Файл
    Качество фильма: DVB
    Информация о видео: MPEG-2, 2717 Кбит/с, 720x576@1024x576
    Информация о звуке: Русский (АС3, 6 ch, 384 Кбит/с) / (MP2, 2 ch, 192 Кбит/с)

    Семпл

    Скриншоты для ознакомления

    MI
    Общее
    Полное имя : Sejv.Xarbor.2009.DVB.MediaClub.ts
    Формат : MPEG-TS
    Профиль формата : No PAT/PMT
    Размер файла : 2,07 Гбайт
    Продолжительность : 1 ч. 25 м.
    Режим общего битрейта : Переменный
    Общий поток : 3471 Кбит/сек

    Видео
    Идентификатор : 322 (0x142)
    Формат : MPEG Video
    Версия формата : Version 2
    Профиль формата : Main@Main
    Параметр BVOP формата : Да
    Параметр матрицы формата : Выборочная
    Параметр GOP формата : Variable
    Продолжительность : 1 ч. 25 м.
    Вид битрейта : Переменный
    Битрейт : 2717 Кбит/сек
    Максимальный битрейт : 15,0 Мбит/сек
    Ширина : 720 пикселей
    Высота : 576 пикселей
    Соотношение сторон : 16:9
    Частота кадров : 25,000 кадров/сек
    Стандарт вещания : PAL
    Цветовое пространство : YUV
    Субдискретизация насыщенности : 4:2:0
    Битовая глубина : 8 бит
    Тип развёртки : Чересстрочная
    Порядок развёртки : Верхнее поле первое
    Метод сжатия : С потерями
    Бит/(Пиксели*Кадры) : 0.262
    Размер потока : 1,62 Гбайт (78%)

    Аудио #1
    Идентификатор : 405 (0x195)
    Формат : MPEG Audio
    Версия формата : Version 1
    Профиль формата : Layer 2
    Продолжительность : 1 ч. 25 м.
    Вид битрейта : Постоянный
    Битрейт : 192 Кбит/сек
    Каналы : 2 канала
    Частота : 48,0 КГц
    Метод сжатия : С потерями
    Задержка видео : -947 мс.
    Размер потока : 117 Мбайт (6%)

    Аудио #2
    Идентификатор : 435 (0x1B3)
    Формат : AC-3
    Формат/Информация : Audio Coding 3
    Расширение режима : CM (complete main)
    Параметр Endianness формата : Big
    Продолжительность : 1 ч. 25 м.
    Вид битрейта : Постоянный
    Битрейт : 384 Кбит/сек
    Каналы : 6 каналов
    Расположение каналов : Front: L C R, Side: L R, LFE
    Частота : 48,0 КГц
    Битовая глубина : 16 бит
    Метод сжатия : С потерями
    Задержка видео : -875 мс.
    Размер потока : 235 Мбайт (11%)


    Релиз подготовил:
    Залил: poja
    Размер скачиваемого торрента: 2.07 GB (2225176460 Bytes)

    Сэйв-Харбор / Safe Harbor (2009) DVB от MediaClub | P торрент скачать бесплатно
    загрузка...
    Рейтинг →
     (голосов: 1, оценка 4/5, голосовать можно 1 раз )

    Другие торренты по теме:

  • Сэйв-Харбор / Safe Harbor (2009) HDTV 1080i | P скачать через торрент бесплатно


    • Комментарии (0):

      Информация

      Информация

        Посетители, находящиеся в группе Гости, не могут оставлять комментарии в данной новости.

        ↓ Меню



        ↓ Опрос

        А Вы добавили сайт в закладки?
        Да
        Не


        Top 10 за неделю (Фильмы)