.
Авторизация | Регистрация
» » 1790 год / Anno 1790 (2011) DVDRip от NovaLan торрент скачать бесплатно




    1790 год / Anno 1790 (2011) DVDRip от NovaLan торрент скачать бесплатно

    Опубликовал: Админ | Дата: 27-02-2015, 11:10 | Просмотров: 507




    Снималось в: Швеция
    Создали в: ARD, Pampas Produktion, Sveriges Television (SVT)
    Категория жанра: Драма, криминал
    Создали в: 2011

    Время просмотра: 10 x ~ 00:58:00

    Перевод текста: Профессиональный многоголосый

    Оригинальная аудиодорожка: Шведская

    Главный режиссер: Леван Акин, Рикард Петрелиус, Кристина Хамле

    Актеры: Питер Эггерс, Юэль Спира, Линда Зиллиакус, Йохан Хесон Чельгрен, Ричард Турпин, Ирма фон Платен, Ноэль Санделл, Фелиция Труедсон, Сара Турпин, Филипп Панов

    Сюжет: Сериал погружает нас в атмосферу Стокгольма конца XVIII века — города, в котором трущобы соседствуют с величественными дворцами, нищие и шлюхи прогуливаются по тем же улицам, что и богатые торговцы с аристократками. Сюда из пекла русско-шведской войны возвращается врач королевского флота Йохан Доод. После отпуска он собирается вернуться в армию. Но непредвиденные обстоятельства кардинально меняют его жизнь. Внезапно умирает полицейский комиссар одного из городских округов - по внешним признакам от сердечного приступа. Однако Доод обнаруживает неопровержимые доказательства насильственной смерти. Его ум, способности, твердость характера и стремление к истине производят впечатление на шефа стокгольмской полиции Вальштедта, и он предлагает врачу стать окружным комиссаром. Доод соглашается, тем самым нажив себе заклятого врага — начальника тюрьмы Нордина, метившего на это место. Практически в одиночку, ежеминутно рискуя жизнью, врач, ставший сыщиком, расследует самые загадочные преступления, мотивы которых те же, что и в любые времена: месть, жадность, любовь, ревность, политика…



    Исходник: DVD9 R5

    Тип релиза: DVDRip

    Контейнер: AVI

    Информация о видео: XviD, ~ 1374 Кбит/с, 720х400
    Информация о звуке: Русский, шведский (АС3, 2 ch, 192 Кбит/с)



    MediaInfo
    Общее
    Полное имя : D:1ААА1790 год1 серия.avi
    Формат : AVI
    Формат/Информация : Audio Video Interleave
    Размер файла : 733 Мбайт
    Продолжительность : 57 м.
    Общий поток : 1772 Кбит/сек
    Программа кодирования : VirtualDubMod 1.5.10.2 (build 2540/release)
    Библиотека кодирования : VirtualDubMod build 2540/release

    Видео
    Идентификатор : 0
    Формат : MPEG-4 Visual
    Профиль формата : Advanced Simple@L5
    Параметр BVOP формата : 2
    Параметр QPel формата : Нет
    Параметр GMC формата : Без точки перехода
    Параметр матрицы формата : Default (MPEG)
    Идентификатор кодека : XVID
    Идентификатор кодека/Подсказка : XviD
    Продолжительность : 57 м.
    Битрейт : 1374 Кбит/сек
    Ширина : 720 пикселей
    Высота : 400 пикселей
    Соотношение сторон : 16:9
    Частота кадров : 23,976 кадра/сек
    Цветовое пространство : YUV
    Субдискретизация насыщенности : 4:2:0
    Битовая глубина : 8 бит
    Тип развёртки : Прогрессивная
    Метод сжатия : С потерями
    Бит/(Пиксели*Кадры) : 0.199
    Размер потока : 568 Мбайт (78%)
    Библиотека кодирования : XviD 1.2.1 (UTC 2008-12-04)

    Аудио #1
    Идентификатор : 1
    Формат : AC-3
    Формат/Информация : Audio Coding 3
    Расширение режима : CM (complete main)
    Параметр Endianness формата : Big
    Идентификатор кодека : 2000
    Продолжительность : 57 м.
    Вид битрейта : Постоянный
    Битрейт : 192 Кбит/сек
    Каналы : 2 канала
    Расположение каналов : Front: L R
    Частота : 48,0 КГц
    Битовая глубина : 16 бит
    Метод сжатия : С потерями
    Размер потока : 79,4 Мбайт (11%)
    Выравнивание : Разделение по промежуткам
    Продолжительность промежутка : 42 мс. (1,00 видеокадр)
    Время предзагрузки промежутка : 500 мс.

    Аудио #2
    Идентификатор : 2
    Формат : AC-3
    Формат/Информация : Audio Coding 3
    Расширение режима : CM (complete main)
    Параметр Endianness формата : Big
    Идентификатор кодека : 2000
    Продолжительность : 57 м.
    Вид битрейта : Постоянный
    Битрейт : 192 Кбит/сек
    Каналы : 2 канала
    Расположение каналов : Front: L R
    Частота : 48,0 КГц
    Битовая глубина : 16 бит
    Метод сжатия : С потерями
    Размер потока : 79,4 Мбайт (11%)
    Выравнивание : Разделение по промежуткам
    Продолжительность промежутка : 42 мс. (1,00 видеокадр)
    Время предзагрузки промежутка : 500 мс.




    Скриншоты для ознакомления




    Релиз группа:
    Автор рипа:
    Залил: YArl
    Размер скачиваемого торрента: 7.00 GB (7520763904 Bytes)

    1790 год / Anno 1790 (2011) DVDRip от NovaLan торрент скачать бесплатно
    загрузка...
    Рейтинг →
     (голосов: 1, оценка 4/5, голосовать можно 1 раз )

    Другие торренты по теме:

  • Glary Utilities Pro 2.55.0.1790 (2013) PC торрент скачать бесплатно
  • Джейн Остин / Jane Austen - Собрание сочинений (1790-1818) FB2, PDF, RTF торрент скачать бесплатно


    • Комментарии (0):

      Информация

      Информация

        Посетители, находящиеся в группе Гости, не могут оставлять комментарии в данной новости.

        ↓ Меню



        ↓ Опрос

        А Вы добавили сайт в закладки?
        Да
        Не


        Top 10 за неделю (Фильмы)