.
Авторизация | Регистрация
» » Капля / The Blob (1988) WEB-DLRip от Leon-masl | P2 скачать через торрент бесплатно




    Капля / The Blob (1988) WEB-DLRip от Leon-masl | P2 скачать через торрент бесплатно

    Опубликовал: Админ | Дата: 27-02-2015, 11:10 | Просмотров: 175



    Детально о кино
    Русское название: Капля
    Русское название в мировом прокате: The Blob
    Создали в: 1988
    Категория жанра: ужасы, фантастика
    Главный режиссер: Чак Рассел
    Актеры: Кевин Диллон — (Брайан Флэгг), Шоуни Смит — (Мэг Пенни), Донован Литч — (Пол Тэйлор), Джеффри ДеМанн — (шериф Херб Геллер), Кэнди Кларк — (Фрэн Хьюитт), Дуглас Эмерсон — (Эдди Бэкнер), Джо Сенека — (доктор Меддоус), Дел Клоуз — (преподобный Микер), Пол МакКрейн — (помощник шерифа Билл Бриггс), Бо Биллингсли — (Мосс Вудли), Джудит Фланаган — (Мама Эдди), Шэрон Спелман — (Мама Мег).

    Сюжет фильма:
    Роковой метеорит принес на землю страшное вещество. Жидкая плазма пожирает все на своем пути, и чем больше жертв оказывается в ее бездонных недрах, тем больше становится этот сгусток черной энергии, несущей смерть.
    Жители маленького американского городка не верят в страшные рассказы о дьявольской субстанции. А тем временем кровавая масса уже приближается к его окраине…




    Снималось в: США
    Киностудия: TriStar Pictures, Palisades, California Inc.
    Время просмотра: 01:34:59
    Перевод текста: Профессиональный двухголосый (Рен-ТВ)

    Файл
    Кодек для видео: XviD
    Качество фильма: WEB-DLRip
    Информация о видео: 720x400 , 23.976 fps, ~1745 kbps
    Информация о звуке 1: AC3 Dolby Digital, 2/0 (L,R) ch, ~192 kbps, Русский, Двухголосый закадровый (РенТВ)
    Информация о звуке 2: AC3 Dolby Digital, 2/0 (L,R) ch, ~192 kbps, Original, English
    MI
    Общее
    Полное имя : The Blob (1988).WEB-DLRip.avi
    Формат : AVI
    Формат/Информация : Audio Video Interleave
    Размер файла : 1,42 Гбайт
    Продолжительность : 1 ч. 34 м.
    Общий поток : 2144 Кбит/сек
    Программа кодирования : VirtualDubMod 1.5.10.2 (build 2542/release)
    Библиотека кодирования : VirtualDubMod build 2542/release

    Видео
    Идентификатор : 0
    Формат : MPEG-4 Visual
    Профиль формата : Advanced Simple@L5
    Параметр BVOP формата : 2
    Параметр QPel формата : Нет
    Параметр GMC формата : Без точки перехода
    Параметр матрицы формата : Выборочная
    Идентификатор кодека : XVID
    Идентификатор кодека/Подсказка : XviD
    Продолжительность : 1 ч. 34 м.
    Битрейт : 1745 Кбит/сек
    Ширина : 720 пикс.
    Высота : 400 пикс.
    Соотношение сторон : 16:9
    Частота кадров : 23,976 кадр/сек
    Цветовое пространство : YUV
    Подвыборка цветности : 4:2:0
    Битовая глубина : 8 бит
    Тип развёртки : Прогрессивная
    Метод сжатия : С потерями
    Бит/(Пиксели*Кадры) : 0.253
    Размер потока : 1,16 Гбайт (81%)
    Библиотека кодирования : XviD 73

    Аудио #1
    Идентификатор : 1
    Формат : AC-3
    Формат/Информация : Audio Coding 3
    Расширение режима : CM (complete main)
    Идентификатор кодека : 2000
    Продолжительность : 1 ч. 34 м.
    Вид битрейта : Постоянный
    Битрейт : 192 Кбит/сек
    Канал(ы) : 2 канала(ов)
    Расположение каналов : Front: L R
    Частота : 48,0 КГц
    Битовая глубина : 16 бит
    Метод сжатия : С потерями
    Размер потока : 130 Мбайт (9%)
    Выравнивание : Разделение по промежуткам
    Продолжительность промежутка : 42 мс. (1,00 видеокадр)
    Время предзагрузки промежутка : 500 ms

    Аудио #2
    Идентификатор : 2
    Формат : AC-3
    Формат/Информация : Audio Coding 3
    Расширение режима : CM (complete main)
    Идентификатор кодека : 2000
    Продолжительность : 1 ч. 34 м.
    Вид битрейта : Постоянный
    Битрейт : 192 Кбит/сек
    Канал(ы) : 2 канала(ов)
    Расположение каналов : Front: L R
    Частота : 48,0 КГц
    Битовая глубина : 16 бит
    Метод сжатия : С потерями
    Размер потока : 130 Мбайт (9%)
    Выравнивание : Разделение по промежуткам
    Продолжительность промежутка : 42 мс. (1,00 видеокадр)
    Время предзагрузки промежутка : 500 ms
    Скриншоты для ознакомления


    Релиз подготовил: Leon-masl
    Залил: leon-masl
    Размер скачиваемого торрента: 1.42 GB (1527005184 Bytes)

    Капля / The Blob (1988) WEB-DLRip от Leon-masl | P2 скачать через торрент бесплатно
    загрузка...
    Рейтинг →
     (голосов: 1, оценка 5/5, голосовать можно 1 раз )

    Другие торренты по теме:

  • Капля / Слизь / Сгусток / The Blob (1988) HDTVRip | P, А торрент скачать бесплатно
  • Голубая Капля: Мистерия Ангелов / Blue Drop: Tenshi-Tachi No Gikyoku (2007) DVDRip 480p | AniFilm торрент скачать бесплатно
  • Леонид Агутин. Капля сожаления (2013) HDTVRip от MediaClub торрент скачать бесплатно
  • Леонид Агутин. Капля сожаления (2013) HDTV 1080i от MediaClub торрент скачать бесплатно
  • Капля / The Blob (1988) BDRip | P2 скачать через торрент бесплатно
  • Капля / The Blob / 1988 / ПД / BDRip скачать торрент бесплатно
  • Капля / The Blob (1988) HDRip от Portablius | P скачать торрент бесплатно
  • Божественные капли / Капли Бога / Drops of God (2009) HDTVRip | L2 скачать через торрент бесплатно


    • Комментарии (0):

      Информация

      Информация

        Посетители, находящиеся в группе Гости, не могут оставлять комментарии в данной новости.

        ↓ Меню



        ↓ Опрос

        А Вы добавили сайт в закладки?
        Да
        Не


        Top 10 за неделю (Фильмы)