.
Авторизация | Регистрация
» » Король чёртова острова / Kongen av Basty (2010) BDRip 720p by msltel | L1 скачать через торрент бесплатно




    Король чёртова острова / Kongen av Basty (2010) BDRip 720p by msltel | L1 скачать через торрент бесплатно

    Опубликовал: Админ | Дата: 27-02-2015, 11:10 | Просмотров: 179



    Русское название: Король чёртова острова (Король острова Дьявола)
    Русское название в мировом прокате: King of Devil;s Island (Kongen av Bast?y)
    Создали в: 2010
    Категория жанра: Драма, боевик
    Снималось в: Норвегия, Франция, Швеция, Польша, 4 1/2 Film, MACT Productions, Opus Film, St Paul Film
    Главный режиссер: Мариус Хольст
    Актеры: Стеллан Скарсгард, Бенжамин Хелстад, Кристоффер Йонер, Тронд Нилссен, Мортен Лёвстад, Даниель Берг, Один Гинесон Брёдеруд, Магнар Боттен, Магнус Ланглете

    Сюжет фильма: Норвегия начала XX века. Зима. На острове Бастой, что в Осло-фьорде, расположена колония для преступников подростков. Их содержат в поистине садистских условиях: психологическое давление и унижение — это методы, с помощью которых охрана держит их в узде. Им не дают никакого образования, зато используют в качестве дешёвой рабочей силы. 11—18 летние подростки выживают, благодаря вынужденной адаптации к нечеловеческим условиям. Они жестоки, они вынуждены договариваться друг с другом, они покупают и продают. Эрлинг, очередной отщепенец 17 лет, волей судьбы попавший на остров, в целях самозащиты случайно убивает офицера и следующей весной, когда ему исполнится 18, его должны переправить в тюрьму для взрослых. По сути, Эрлинг доживает свою последнюю зиму, потому что перевод в другую тюрьму означает для него неминуемую смерть. Но у него совсем другие планы. Он решает сделать невозможное — сбежать с Бастоя, острова Дьявола… Основано на реальных событиях.

    Качество фильма: BDRip 720p
    Размер скачиваемого торрента: 5.79 ГБ
    Время просмотра: 01:56:18

    Информация о видео: MPEG-4 AVC, 4604 Кбит/с, 1280x544
    Информация о звуке: русский, 48 kHz, DTS, 6 ch, 1509 kbps avg, Любительский одноголосый, Вячеслав Замез

    Внешние файлы
    Информация о звуке: русский, 48 kHz, AC3, 6 ch, 448 kbps avg, Любительский одноголосый, Вячеслав Замез
    Информация о звуке: норвежский, 48 kHz, AC3, 6 ch, 448 kbps avg, Оригинал
    Субтитры: русские

    Исходник: posodobl (Кинозал)

    Сравнение с исходником



    MediaInfo Лог х264
    Общее
    Полное имя : D:VideoKorol ostrova Bastoj.2010.x264.BDRip.720pKorol ostrova Bastoj.2010.Original.nor.ac3
    Формат : AC-3
    Формат/Информация : Audio Coding 3
    Размер файла : 373 Мбайт
    Продолжительность : 1 ч. 56 м.
    Режим общего битрейта : Постоянный
    Общий поток : 448 Кбит/сек

    Аудио
    Формат : AC-3
    Формат/Информация : Audio Coding 3
    Расширение режима : CM (complete main)
    Параметр Endianness формата : Big
    Продолжительность : 1 ч. 56 м.
    Вид битрейта : Постоянный
    Битрейт : 448 Кбит/сек
    Каналы : 6 каналов
    Расположение каналов : Front: L C R, Side: L R, LFE
    Частота : 48,0 КГц
    Битовая глубина : 16 бит
    Метод сжатия : С потерями
    Размер потока : 373 Мбайт (100%)

    Общее
    Полное имя : D:VideoKorol ostrova Bastoj.2010.x264.BDRip.720pKorol ostrova Bastoj.2010.rus.srt
    Размер файла : 88,0 Кбайт

    Общее
    Полное имя : D:VideoKorol ostrova Bastoj.2010.x264.BDRip.720pKorol ostrova Bastoj.2010.VO.rus.В.Замез.ac3
    Формат : AC-3
    Формат/Информация : Audio Coding 3
    Размер файла : 373 Мбайт
    Продолжительность : 1 ч. 56 м.
    Режим общего битрейта : Постоянный
    Общий поток : 448 Кбит/сек

    Аудио
    Формат : AC-3
    Формат/Информация : Audio Coding 3
    Расширение режима : CM (complete main)
    Параметр Endianness формата : Big
    Продолжительность : 1 ч. 56 м.
    Вид битрейта : Постоянный
    Битрейт : 448 Кбит/сек
    Каналы : 6 каналов
    Расположение каналов : Front: L C R, Side: L R, LFE
    Частота : 48,0 КГц
    Битовая глубина : 16 бит
    Метод сжатия : С потерями
    Размер потока : 373 Мбайт (100%)

    Общее
    Уникальный идентификатор : 190085226042922417619997877135038659591 (0x8F011537C4094B54B6476A7F6EE2BC07)
    Полное имя : D:VideoKorol ostrova Bastoj.2010.x264.BDRip.720pKorol ostrova Bastoj.2010.x264.BDRip.720p.mkv
    Формат : Matroska
    Версия формата : Version 4 / Version 2
    Размер файла : 5,07 Гбайт
    Продолжительность : 1 ч. 56 м.
    Общий поток : 6237 Кбит/сек
    Дата кодирования : UTC 2014-03-30 08:39:55
    Программа кодирования : mkvmerge v6.8.0 (;Theme for Great Cities;) 64bit built on Mar 2 2014 21:34:26
    Библиотека кодирования : libebml v1.3.0 libmatroska v1.4.1

    Видео
    Идентификатор : 1
    Формат : AVC
    Формат/Информация : Advanced Video Codec
    Профиль формата : High@L4.1
    Параметр CABAC формата : Да
    Параметр ReFrames формата : 9 кадров
    Идентификатор кодека : V_MPEG4/ISO/AVC
    Продолжительность : 1 ч. 56 м.
    Битрейт : 4604 Кбит/сек
    Ширина : 1280 пикселей
    Высота : 544 пикселя
    Соотношение сторон : 2,35:1
    Режим частоты кадров : Постоянный
    Частота кадров : 24,000 кадра/сек
    Цветовое пространство : YUV
    Субдискретизация насыщенности : 4:2:0
    Битовая глубина : 8 бит
    Тип развёртки : Прогрессивная
    Бит/(Пиксели*Кадры) : 0.275
    Размер потока : 3,74 Гбайт (74%)
    Заголовок : BDRip -- STarankov
    Библиотека кодирования : x264 core 138 r2358 9e941d1
    Залил: msltel
    Размер скачиваемого торрента: 5.79 GB (6222258406 Bytes)


    Король чёртова острова / Kongen av Basty (2010) BDRip 720p by msltel | L1 скачать через торрент бесплатно
    загрузка...
    Рейтинг →
     (голосов: 1, оценка 5/5, голосовать можно 1 раз )

    Другие торренты по теме:

  • Король чёртова острова / Король острова Дьявола / King of Devils Island (2010) HDRip | L1 скачать через торрент бесплатно
  • Король чёртова острова / Kongen av Basty (2010) BDRip 1080p by msltel | L1 скачать через торрент бесплатно
  • Король чёртова острова / Kongen av Basty (2010) HDRip-AVC от Leo.pard | L1 скачать через торрент бесплатно
  • Король чёртова острова / Kongen av Basty (2010) HDRip | L1 торрент скачать бесплатно


    • Комментарии (0):

      Информация

      Информация

        Посетители, находящиеся в группе Гости, не могут оставлять комментарии в данной новости.

        ↓ Меню



        ↓ Опрос

        А Вы добавили сайт в закладки?
        Да
        Не


        Top 10 за неделю (Фильмы)