.
Авторизация | Регистрация
» » Паранормальное явление: Метка Дьявола / Paranormal Activity: The Marked Ones (2013) HDRip от Deadmauvlad | Чистый звук скачать через торрент бесплатно




    Паранормальное явление: Метка Дьявола / Paranormal Activity: The Marked Ones (2013) HDRip от Deadmauvlad | Чистый звук скачать через торрент бесплатно

    Опубликовал: Админ | Дата: 27-02-2015, 11:10 | Просмотров: 222


    Детально о кино
    Русское название: Паранормальное явление: Метка Дьявола
    Русское название в мировом прокате: Paranormal Activity: The Marked Ones
    Создали в: 2013
    Жанр: Ужасы, триллер
    Снималось в: США, Paramount Pictures, Blumhouse Productions, Room 101
    Главный режиссер: Кристофер Б. Лэндон
    Актеры: Эндрю Джейкобс, Хорхе Диаз, Габриэль Уолш, Рени Виктор, Ноеми Гонзалез, Дэвид Сауседо, Глория Сандовал, Ричард Кебрал, Карлос Праттс, Хуан Васкес

    Сюжет фильма: Действие фильма происходит в 2012 году в Окснарде, штат Калифорния. Выпускник школы Джесси живёт со своим отцом и бабушкой, а в квартире под ними живёт Анна, которую все считают ведьмой. Однажды Анну находят мёртвой, и полиция подозревает Оскара, бывшего одноклассника Джесси. Джесси вместе с друзьями решает осмотреть квартиру Анны. Там он находит следы проведения обрядов чёрной магии и фотографию Джесси. Среди найденного также оказываются несколько видеокассет, включая детские записи Кэти и Кристи из третьего фильма, и книги заклинаний, одна из которых позволяет создавать порталы в богомерзкие места. На следующее утро Джесси обнаруживает у себя на руке странный укус. Чуть позже, когда Джесси с его другом Гектором вечером возвращаются домой, на них нападают бандиты.Бандиты начинают избивать Джесси, но тот отбрасывает их от себя с нечеловеческой силой. Джесси и Гектор отправляются к Марисол, их общей подруге, чтобы поведать о случившемся, но во время разговора выясняется, что Джесси об этом ничего не помнит. После этого с Джесси начинают происходить необъяснимые вещи, и он понимает, что обладает сверхъестественными способностями.На вечеринке Джесси и Гектор знакомятся с Пенелопой, которую Джесси отводит в квартиру Анны, чтобы заняться с ней сексом. Пенелопа случайно открывает потайную дверь в подвал, из которого появляется Оскар и тянет Пенелопу вниз. Пенелопа в ужасе убегает, а Джесси внезапно сталкивается с Оскаром. Джесси замечает, что у Оскара чёрные белки в глазах, а также укус на руке, такой же, как и у него самого.



    Файл
    Качество фильма: HDRip
    Информация о видео: 720x400 (1.80:1), 23.976 fps, XviD build 73 ~1103 kbps avg, 0.16 bit/pixel
    Информация о звуке: 48 kHz, MPEG Layer 3, 2 ch, ~128.00 kbps avg
    Время просмотра: 01:24:12
    Перевод текста: Дублированный Чистый звук
    Сэмпл: Скачать


    Скриншоты для ознакомления:






    Дополнительная информация:

    MI
    codeОбщее
    Полное имя : D:Рипы выкладка DeadmauvladРипы готовыеParanormal.Activity.The.Marked.Ones.2014.HDRip.Deadmauvlad.avi
    Формат : AVI
    Формат/Информация : Audio Video Interleave
    Размер файла : 747 Мбайт
    Продолжительность : 1 ч. 24 м.
    Общий поток : 1241 Кбит/сек
    Название фильма : Paranormal.Activity.The.Marked.Ones.2014.HDRip.Deadmauvlad
    Режиссёр : Deadmauvlad
    Жанр : Ужасы, Триллер , Драма
    Программа кодирования : VirtualDubMod 1.5.10.3 | www.virtualdub-fr.org || (build 2550/release)
    Формат оригинала/Имя : Фильм
    Правообладатель : Goldenshara

    Видео
    Идентификатор : 0
    Формат : MPEG-4 Visual
    Профиль формата : Advanced Simple@L5
    Параметр BVOP формата : 1
    Параметр QPel формата : Нет
    Параметр GMC формата : Без точки перехода
    Параметр матрицы формата : Выборочная
    Идентификатор кодека : XVID
    Идентификатор кодека/Подсказка : XviD
    Продолжительность : 1 ч. 24 м.
    Битрейт : 1104 Кбит/сек
    Ширина : 720 пикселей
    Высота : 400 пикселей
    Соотношение сторон : 16:9
    Частота кадров : 23,976 кадра/сек
    Цветовое пространство : YUV
    Субдискретизация насыщенности : 4:2:0
    Битовая глубина : 8 бит
    Тип развёртки : Прогрессивная
    Метод сжатия : С потерями
    Бит/(Пиксели*Кадры) : 0.160
    Размер потока : 665 Мбайт (89%)
    Библиотека кодирования : XviD 73

    Аудио
    Идентификатор : 1
    Формат : MPEG Audio
    Версия формата : Version 1
    Профиль формата : Layer 3
    Идентификатор кодека : 55
    Идентификатор кодека/Подсказка : MP3
    Продолжительность : 1 ч. 24 м.
    Вид битрейта : Постоянный
    Битрейт : 128 Кбит/сек
    Каналы : 2 канала
    Частота : 48,0 КГц
    Метод сжатия : С потерями
    Размер потока : 77,1 Мбайт (10%)
    Выравнивание : Соединение по промежуткам
    Продолжительность промежутка : 42 мс. (1,00 видеокадр)
    Время предзагрузки промежутка : 504 мс.
    Библиотека кодирования : LAME3.99r
    Залил: DJ_V.K_TV
    Размер скачиваемого торрента: 747.39 MB (783699968 Bytes)


    Паранормальное явление: Метка Дьявола / Paranormal Activity: The Marked Ones (2013) HDRip от Deadmauvlad | Чистый звук скачать через торрент бесплатно
    загрузка...
    Рейтинг →
     (голосов: 1, оценка 5/5, голосовать можно 1 раз )

    Другие торренты по теме:

  • Паранормальное явление 4 / Paranormal Activity 4 (2012) HDRip | UNRATED | Звук с CAMRip торрент скачать бесплатно
  • 30 ночей паранормального явления с одержимой девушкой с татуировкой дракона / 30 Nights of Paranormal Activity with the Devil Inside the Girl with the Dragon Tattoo (2012) WEB-DLRip | L2 торрент скачать бесплатно
  • Дом с паранормальными явлениями / A Haunted House (2013) CAMRip торрент скачать бесплатно
  • 30 ночей паранормального явления с одержимой девушкой с татуировкой дракона / 30 Nights of Paranormal Activity (2012) BDRip 1080p скачать через торрент бесплатно
  • Паранормальное явление 4 / Paranormal Activity 4 (2012) HDRip от Deadmauvlad | D | Unrated Directors Cut скачать через торрент бесплатно
  • Дом с паранормальными явлениями / A Haunted House (2013) BDRip 720p от leonardo 59 Scarabey | Лицензия торрент скачать бесплатно
  • Паранормальное явление: Метка Дьявола (2014) скачать через торрент бесплатно
  • Паранормальное явление 4 / Paranormal Activity 4 (2012) HDRip от Deadmauvlad | D | Unrated Directors Cut | USA Transfer торрент скачать бесплатно


    • Комментарии (0):

      Информация

      Информация

        Посетители, находящиеся в группе Гости, не могут оставлять комментарии в данной новости.

        ↓ Меню



        ↓ Опрос

        А Вы добавили сайт в закладки?
        Да
        Не


        Top 10 за неделю (Фильмы)