.
Авторизация | Регистрация
Хочешь лучшие торренты? Добавь свой email!
Добавить
» » Одержимая / Crush (2013) BDRip 720p от New-Team | D, P2, L1 | лицензия скачать через торрент бесплатно


    Одержимая / Crush (2013) BDRip 720p от New-Team | D, P2, L1 | лицензия скачать через торрент бесплатно

    Опубликовал: Админ | Дата: 27-02-2015, 11:10 | Просмотров: 214



    Снималось в: США / Intrepid Pictures

    Категория жанра: триллер
    Создали в: 2013
    Время просмотра: 01:34:51
    Перевод текста: Профессиональный (дублированный) Профессиональный (двухголосый) Elrom Любительский (одноголосый) ХиХиДок
    Субтитры подготовлены: английский
    Оригинальная аудиодорожка: английский

    Главный режиссер: Малик Бейдер / Malik Bader

    Актеры: Лукас Тилл, Кристал Рид, Сара Болджер, Каитриона Бэлфи, Рейд Юинг, Холт МакКэллани, Ли Уоннелл, Престон Дэвис, Камилла Гуати, Айзая Мустафа...

    Сюжет: Скромная, застенчивая девушка Бесс находит себе идеал в школе. Выбор пал на лучшего футболиста, покорителя всех девичьих сердец, Скотта. Бесс, не в силах противиться своей страсти, начинает преследовать своего кумира…



    Качество фильма: BDRip 720p / BDRemux 1080p DVD5 R5
    Тип видео: MKV

    Информация о видео: 1280x720 (16:9), 23.976 fps, H264 ~ 4678 kbps avg, 0.212 bit/pixel
    Информация о звуке 1: 48 kHz, Dolby AC3, 6 ch, 448 kbps, русский DUB
    Информация о звуке 2: 48 kHz, Dolby AC3, 2 ch, 192 kbps, русский DVO Elrom
    Информация о звуке 3: 48 kHz, Dolby AC3, 2 ch, 192 kbps, русский VO ХиХиДок
    Информация о звуке 4: 48 kHz, Dolby AC3, 6 ch, 640 kbps, английский
    Тип видео субтитров: SoftSub (srt)

    Дополнительно: Фильм разбит на главы, как на оригинальном Blu-Ray диске.

    Раздача от:
    MediaInfo

    Общее
    Полное имя : Oderjimaya.2013.D.BDRip.720p.New-Team.mkv
    Формат : Matroska
    Версия формата : Version 4 / Version 2
    Размер файла : 4,16 Гбайт
    Продолжительность : 1 ч. 34 м.
    Общий поток : 6275 Кбит/сек
    Дата кодирования : UTC 2014-03-30 07:07:11
    Программа кодирования : mkvmerge v6.8.0 (;Theme for Great Cities;) 64bit built on Mar 2 2014 21:34:26
    Библиотека кодирования : libebml v1.3.0 libmatroska v1.4.1

    Видео
    Идентификатор : 1
    Формат : AVC
    Формат/Информация : Advanced Video Codec
    Профиль формата : High@L4.1
    Параметр CABAC формата : Да
    Параметр ReFrames формата : 9 кадров
    Идентификатор кодека : V_MPEG4/ISO/AVC
    Продолжительность : 1 ч. 34 м.
    Битрейт : 4678 Кбит/сек
    Ширина : 1280 пикселей
    Высота : 720 пикселей
    Соотношение сторон : 16:9
    Режим частоты кадров : Постоянный
    Частота кадров : 23,976 кадра/сек
    Цветовое пространство : YUV
    Субдискретизация насыщенности : 4:2:0
    Битовая глубина : 8 бит
    Тип развёртки : Прогрессивная
    Бит/(Пиксели*Кадры) : 0.212
    Размер потока : 3,10 Гбайт (75%)
    Заголовок : Release Group CINEMANIA
    Язык : English
    Default : Да
    Forced : Нет

    Аудио #1
    Идентификатор : 2
    Формат : AC-3
    Формат/Информация : Audio Coding 3
    Расширение режима : CM (complete main)
    Параметр Endianness формата : Big
    Идентификатор кодека : A_AC3
    Продолжительность : 1 ч. 34 м.
    Вид битрейта : Постоянный
    Битрейт : 448 Кбит/сек
    Каналы : 6 каналов
    Расположение каналов : Front: L C R, Side: L R, LFE
    Частота : 48,0 КГц
    Битовая глубина : 16 бит
    Метод сжатия : С потерями
    Размер потока : 304 Мбайт (7%)
    Заголовок : DUB
    Язык : Russian
    Default : Да
    Forced : Нет

    Аудио #2
    Идентификатор : 3
    Формат : AC-3
    Формат/Информация : Audio Coding 3
    Расширение режима : CM (complete main)
    Параметр Endianness формата : Big
    Идентификатор кодека : A_AC3
    Продолжительность : 1 ч. 34 м.
    Вид битрейта : Постоянный
    Битрейт : 192 Кбит/сек
    Каналы : 2 канала
    Расположение каналов : Front: L R
    Частота : 48,0 КГц
    Битовая глубина : 16 бит
    Метод сжатия : С потерями
    Размер потока : 130 Мбайт (3%)
    Заголовок : DVO Elrom
    Язык : Russian
    Default : Нет
    Forced : Нет

    Аудио #3
    Идентификатор : 4
    Формат : AC-3
    Формат/Информация : Audio Coding 3
    Расширение режима : CM (complete main)
    Параметр Endianness формата : Big
    Идентификатор кодека : A_AC3
    Продолжительность : 1 ч. 34 м.
    Вид битрейта : Постоянный
    Битрейт : 192 Кбит/сек
    Каналы : 2 канала
    Расположение каналов : Front: L R
    Частота : 48,0 КГц
    Битовая глубина : 16 бит
    Метод сжатия : С потерями
    Размер потока : 130 Мбайт (3%)
    Заголовок : VO HiHiDok
    Язык : Russian
    Default : Нет
    Forced : Нет

    Аудио #4
    Идентификатор : 5
    Формат : AC-3
    Формат/Информация : Audio Coding 3
    Расширение режима : CM (complete main)
    Параметр Endianness формата : Big
    Идентификатор кодека : A_AC3
    Продолжительность : 1 ч. 34 м.
    Вид битрейта : Постоянный
    Битрейт : 640 Кбит/сек
    Каналы : 6 каналов
    Расположение каналов : Front: L C R, Side: L R, LFE
    Частота : 48,0 КГц
    Битовая глубина : 16 бит
    Метод сжатия : С потерями
    Размер потока : 434 Мбайт (10%)
    Язык : English
    Default : Нет
    Forced : Нет

    Текст
    Идентификатор : 6
    Формат : UTF-8
    Идентификатор кодека : S_TEXT/UTF8
    Идентификатор кодека/Информация : UTF-8 Plain Text
    Язык : English
    Default : Нет
    Forced : Нет

    Меню
    00:00:00.000 : en:00:00:00.000
    00:08:55.326 : en:00:08:55.326
    00:16:25.985 : en:00:16:25.985
    00:24:31.553 : en:00:24:31.553
    00:32:20.981 : en:00:32:20.981
    00:42:06.482 : en:00:42:06.482
    00:49:13.325 : en:00:49:13.325
    00:56:01.525 : en:00:56:01.525
    01:03:18.878 : en:01:03:18.878
    01:12:36.769 : en:01:12:36.769
    01:20:16.478 : en:01:20:16.478
    01:29:03.922 : en:01:29:03.922

    Скриншоты для ознакомления:



    Залил: avproh
    Размер скачиваемого торрента: 4.16 GB (4464336047 Bytes)

    Одержимая / Crush (2013) BDRip 720p от New-Team | D, P2, L1 | лицензия скачать через торрент бесплатно
    загрузка...
    Рейтинг →
     (голосов: 1, оценка 5/5, голосовать можно 1 раз )

    Другие торренты по теме:

  • Одержимая / Обладание, Одержимая бесом / Possession (1981) BDRip 720p от NovaLan
  • Одержимая / Обладание, Одержимая бесом / Possession (1981) BDRip 1080p от NovaLan
  • Малабимба / Одержимая дьяволом / Malabimba / The Malicious Whore (1979) DVDRip-AVC от olegek70 | L1
  • Одержимая / Possessed / Living Death / Disbelief Hell / Hell of the Non-Believers / Bool-sin-ji-ok (2009) DVDRip | L2
  • Одержимая / Possession (1981) BDRip-AVC от Rulya74 | P2
  • Одержимая / Crush (2013) BDRip-AVC от HELLYWOOD | P2
  • Одержимая / Crush (2013) BDRip 720p от CINEMANIA | P2, L1
  • Одержимая / Crush (2013) BDRip 1080p от CINEMANIA | P2, L1


    • Комментарии (0):

      Информация

      Информация

        Посетители, находящиеся в группе Гости, не могут оставлять комментарии в данной новости.

        ↓ Меню



        ↓ Опрос

        А Вы добавили сайт в закладки?
        Да
        Не


        Top 10 за месяц (Фильмы)