.
Авторизация | Регистрация
Хочешь лучшие торренты? Добавь свой email!
Добавить
» » Похмельные игры / The Hungover Games (2013) BDRip-AVC | iPad | P | iTunes скачать через торрент бесплатно




    Похмельные игры / The Hungover Games (2013) BDRip-AVC | iPad | P | iTunes скачать через торрент бесплатно

    Опубликовал: Админ | Дата: 27-02-2015, 11:10 | Просмотров: 290



    Похмельные игры / The Hungover Games (2013) BDRip-AVC | iPad | P | iTunes

    Русское название: Похмельные игры
    Русское название в мировом прокате: The Hungover Games
    Создали в: 2013
    Категория жанра: комедия, пародия
    Главный режиссер: Джош Столберг
    Актеры: Росс Нэйтан, Сэм Пэнкейк, Бен Бегли, Рассел Харпер, Джон Ливингстон, Дэмиен Брэй, Тара Рид, Джейми Кеннеди, Шанель Гейнс, Carolyn Ratteray

    Сюжет фильма:
    После празднования предстоящей свадьбы Доуга в отеле в Лафлине, штат Невада, Брэдли, Эд и Зак приходят в себя в футуристической антиутопии, потеряв своего друга - Доуга.



    Снималось в: США
    Киностудия: Sense and Sensibility Ventures, Silver Nitrate
    Время просмотра: 01:25:12
    Перевод текста: Русский профессиональный многоголосый закадровый | iTunes

    Файл
    Кодек для видео: H.264
    Качество фильма: BDRip-AVC 576p
    Информация о видео: 1024x576 (16:9) at 23.976 fps, AVC at 3000 kbps
    Информация о звуке:
    1: АAС 2.0 128 kbps - Русский профессиональный многоголосый закадровый
    2: АAС 2.0 132 kbps - Английский

    Субтитры: отсутствуют

    MI

    General
    Complete name : C:CREATE264mod0outThe Hungover Games Unrated Cut.2013.BDRip.576p.P.m4v
    Format : MPEG-4
    Codec ID : M4V
    File size : 2.00 GiB
    Duration : 1h 25mn
    Overall bit rate mode : Variable
    Overall bit rate : 3 354 Kbps
    Movie name : Похмельные игры
    Performer : Josh Stolberg
    Genre : Comedy
    ContentType : Short Film
    Deion : После празднования предстоящей свадьбы Доуга в отеле в Лафлине, штат Невада, Брэдли, Эд и Зак приходят в себя в футуристической антиутопии, потеряв своего друга - Доуга
    Recorded date : UTC 2014-02-11 08:00:00
    Encoded date : UTC 2014-03-30 06:56:01
    Tagged date : UTC 2014-03-30 07:05:00
    Copyright : Sense and Sensibility Ventures, Silver Nitrate, Funny or Die
    Cover : Yes
    ContentRating : mpaa|R|400|

    AppleStoreCatalogID : 804427947
    Vendor : Apple:vendor_id:2013-790503

    Video
    ID : 1
    Format : AVC
    Format/Info : Advanced Video Codec
    Format profile : High@L4.1
    Format settings, CABAC : Yes
    Format settings, ReFrames : 9 frames
    Codec ID : avc1
    Codec ID/Info : Advanced Video Coding
    Duration : 1h 25mn
    Bit rate : 3 080 Kbps
    Maximum bit rate : 12.5 Mbps
    Width : 1 024 pixels
    Height : 576 pixels
    Display aspect ratio : 16:9
    Frame rate mode : Constant
    Frame rate : 23.976 fps
    Color space : YUV
    Chroma subsampling : 4:2:0
    Bit depth : 8 bits
    Scan type : Progressive
    Bits/(Pixel*Frame) : 0.218
    Stream size : 1.83 GiB (92%)
    Title : The Hungover Games Unrated Cut _2013_
    Language : English
    Encoded date : UTC 2014-03-30 06:56:01
    Tagged date : UTC 2014-03-30 06:56:27
    Matrix coefficients : BT.709

    Audio #1
    ID : 2
    Format : AAC
    Format/Info : Advanced Audio Codec
    Format profile : LC
    Codec ID : 40
    Duration : 1h 25mn
    Bit rate mode : Variable
    Bit rate : 126 Kbps
    Maximum bit rate : 167 Kbps
    Channel(s) : 2 channels
    Channel positions : Front: L R
    Sampling rate : 48.0 KHz
    Compression mode : Lossy
    Stream size : 77.0 MiB (4%)
    Title : MVO
    Language : Russian
    Encoded date : UTC 2014-03-30 06:51:20
    Tagged date : UTC 2014-03-30 06:56:27

    Audio #2
    ID : 3
    Format : AAC
    Format/Info : Advanced Audio Codec
    Format profile : LC
    Codec ID : 40
    Duration : 1h 25mn
    Bit rate mode : Variable
    Bit rate : 132 Kbps
    Maximum bit rate : 170 Kbps
    Channel(s) : 2 channels
    Channel positions : Front: L R
    Sampling rate : 48.0 KHz
    Compression mode : Lossy
    Stream size : 81.7 MiB (4%)
    Title : Original
    Language : English
    Encoded date : UTC 2014-03-30 06:53:29
    Tagged date : UTC 2014-03-30 06:56:27

    Menu
    ID : 4
    Codec ID : text
    Duration : 1h 25mn
    Encoded date : UTC 2014-03-30 06:56:56
    Tagged date : UTC 2014-03-30 06:56:56
    Bit rate mode : CBR

    iTunes tags


    Sort Name: The Hungover Games
    XID: Apple:vendor_id:2013-790503
    Content ID: 804427947
    Copyright: Sense and Sensibility Ventures, Silver Nitrate, Funny or Die
    ScreenWriters: Kyle Barnett Anderson, David Bernstein, Джейми Кеннеди
    Producers: Джим Басфилд, Бен Фейнголд, Джейми Кеннеди
    Director: Джош Столберг
    Cast: Росс Нэйтан, Сэм Пэнкейк, Бен Бегли, Рассел Харпер, Джон Ливингстон, Дэмиен Брэй, Тара Рид, Джейми Кеннеди, Шанель Гейнс, Carolyn Ratteray
    Rating: R
    Long Deion: После празднования предстоящей свадьбы Доуга в отеле в Лафлине, штат Невада, Брэдли, Эд и Зак приходят в себя в футуристической антиутопии, потеряв своего друга - Доуга
    Deion: После празднования предстоящей свадьбы Доуга в отеле в Лафлине, штат Невада, Брэдли, Эд и Зак приходят в себя в футуристической антиутопии, потеряв своего друга - Доуга
    Release Date: 2014-02-11T08:00:00Z
    Genre: Comedy
    Artist: Josh Stolberg
    Name: Похмельные игры

    x264

    x264 info: frame I:1143 Avg QP:17.95 size: 97679
    x264 info: frame P:36673 Avg QP:20.20 size: 31104
    x264 info: frame B:84751 Avg QP:22.27 size: 8448
    x264 info: consecutive B-frames: 9.0% 4.7% 14.4% 27.9% 20.7% 18.8% 1.4% 0.3% 0.3% 1.9% 0.1% 0.1% 0.1% 0.1% 0.2%
    x264 info: mb I I16..4: 9.6% 71.6% 18.8%
    x264 info: mb P I16..4: 0.6% 11.1% 1.8% P16..4: 28.2% 33.9% 14.8% 3.7% 0.6% skip: 5.3%
    x264 info: mb B I16..4: 0.0% 1.1% 0.2% B16..8: 34.3% 20.4% 3.2% direct: 4.5% skip:36.3% L0:33.9% L1:47.0% BI:19.1%
    x264 info: 8x8 transform intra:80.5% inter:52.9%
    x264 info: coded y,uvDC,uvAC intra: 94.4% 85.6% 58.6% inter: 26.5% 16.6% 7.6%
    x264 info: i16 v,h,dc,p: 17% 11% 11% 61%
    x264 info: i8 v,h,dc,ddl,ddr,vr,hd,vl,hu: 9% 8% 5% 10% 15% 14% 14% 13% 14%
    x264 info: i4 v,h,dc,ddl,ddr,vr,hd,vl,hu: 9% 8% 3% 8% 17% 15% 15% 11% 12%
    x264 info: i8c dc,h,v,p: 37% 24% 19% 21%
    x264 info: Weighted P-Frames: Y:2.7% UV:1.3%
    x264 info: ref P L0: 67.6% 15.2% 7.6% 3.1% 2.1% 1.5% 1.2% 0.7% 0.7% 0.2% 0.0%
    x264 info: ref B L0: 93.7% 3.4% 1.4% 0.6% 0.4% 0.3% 0.2% 0.1%
    x264 info: ref B L1: 96.9% 3.1%
    x264 info: kb/s:3080.18




    Залил: gekka
    Размер скачиваемого торрента: 2.00 GB (2143443795 Bytes)

    Похмельные игры / The Hungover Games (2013) BDRip-AVC | iPad | P | iTunes скачать через торрент бесплатно
    загрузка...
    Рейтинг →
     (голосов: 1, оценка 4/5, голосовать можно 1 раз )

    Другие торренты по теме:

  • Похмельные игры / The Hungover Games (2014) WEB-DL 720p | iTunes скачать через торрент бесплатно
  • Похмельные игры / The Hungover Games (2014) WB-DLRip | iTunes скачать через торрент бесплатно
  • Похмельные игры / The Hungover Games (2014) WEB-DLRip-AVC | iTunes
  • Похмельные игры / The Hungover Games (2014) WEB-DLRip от Smart-Tracker | КПК скачать через торрент бесплатно
  • Похмельные игры / The Hungover Games (2014) WEB-DLRip от Deadmauvlad | iTunes
  • Похмельные игры / The Hungover Games (2014) BDRip 720p | iTunes скачать через торрент бесплатно
  • Похмельные игры / The Hungover Games (2014) HDRip | iTunes скачать через торрент бесплатно
  • Похмельные игры / The Hungover Games (2014) BDRip 720p от Leonardo and Scarabey | iTunes скачать через торрент бесплатно


    • Комментарии (0):

      Информация

      Информация

        Посетители, находящиеся в группе Гости, не могут оставлять комментарии в данной новости.

        ↓ Меню



        ↓ Опрос

        А Вы добавили сайт в закладки?
        Да
        Не


        Top 10 за месяц (Фильмы)