.
Авторизация | Регистрация
Хочешь лучшие торренты? Добавь свой email!
Добавить
» » Братья по обмену (2013) DVDRip от New-Team | лицензия скачать через торрент бесплатно




    Братья по обмену (2013) DVDRip от New-Team | лицензия скачать через торрент бесплатно

    Опубликовал: Админ | Дата: 27-02-2015, 11:10 | Просмотров: 218

    Федор Добронравов - не сват, а брат!



    Снималось в: Россия

    Категория жанра: комедия
    Создали в: 2013
    Время просмотра: 00:44:00 / серия

    Перевод текста: Не требуется
    Субтитры подготовлены: нет
    Оригинальная аудиодорожка: русский

    Главный режиссер: Александр Жигалкин

    Актеры: Федор Добронравов, Мария Аронова, Борис Клюев, Елена Шевченко, Сергей Беляев, Мария Горбань, Карэн Бадалов, Олег Кассин, Галина Петрова, Виктор Добронравов...

    Сюжет: Валерий Перечихин — фигура большого масштаба, владелец крупной дорожно-строительной компании, консультант Общественного Совета при Комиссии Госдумы по транспорту, известный благотворительностью и выступлениями по телевизору. Моложав, гладко выбрит, хорошо одет.
    Федор Перечихин — брат-близнец Валерия, человек добрый, но слабый, выпивает, часто меняет работу, разведён, имеет срок за утопленный трактор и живет на поселении в пяти километрах от отцовского дома. Щетинист, лысоват, плохо выглядит.
    Два брата-близнеца после тридцатилетней разлуки встречаются на родине, в глухом селе, на похоронах отца, который когда-то выгнал Валерия из дома. После похорон братья крепко выпивают, ссорятся и дерутся.
    На утро по стечению обстоятельств они меняются местами: московский бизнесмен попадает на поселение, а его сельский брат-близнец отправляется в Москву. Эта рокировка влечет за собой перемены не только в них, но и в их ближайшем окружении.



    Качество фильма: DVDRip / 2 x DVD9 R5
    Тип видео: AVI

    Информация о видео: 720x400 (16:9), 25.000 fps, XviD ~ 2000 kbps avg, 0.278 bit/pixel
    Информация о звуке: 48 kHz, Dolby AC3, 2 ch, 128 kbps, русский

    Раздача от:

    MediaInfo

    Общее
    Полное имя : Bratya.po.obmenu.2013.DVDRip_New-Team_by_avproh1.avi
    Формат : AVI
    Формат/Информация : Audio Video Interleave
    Размер файла : 676 Мбайт
    Продолжительность : 44 м.
    Общий поток : 2137 Кбит/сек
    Программа кодирования : VirtualDubMod 1.5.10.3 | www.virtualdub-fr.org || (build 2550/release)
    Библиотека кодирования : VirtualDubMod build 2550/release

    Видео
    Идентификатор : 0
    Формат : MPEG-4 Visual
    Профиль формата : Advanced Simple@L5
    Параметр BVOP формата : 1
    Параметр QPel формата : Нет
    Параметр GMC формата : Без точки перехода
    Параметр матрицы формата : Выборочная
    Идентификатор кодека : XVID
    Идентификатор кодека/Подсказка : XviD
    Продолжительность : 44 м.
    Битрейт : 2000 Кбит/сек
    Ширина : 720 пикселей
    Высота : 400 пикселей
    Соотношение сторон : 16:9
    Частота кадров : 25,000 кадров/сек
    Цветовое пространство : YUV
    Субдискретизация насыщенности : 4:2:0
    Битовая глубина : 8 бит
    Тип развёртки : Прогрессивная
    Метод сжатия : С потерями
    Бит/(Пиксели*Кадры) : 0.278
    Размер потока : 632 Мбайт (94%)
    Библиотека кодирования : XviD 73

    Аудио
    Идентификатор : 1
    Формат : AC-3
    Формат/Информация : Audio Coding 3
    Расширение режима : CM (complete main)
    Параметр Endianness формата : Big
    Идентификатор кодека : 2000
    Продолжительность : 44 м.
    Вид битрейта : Постоянный
    Битрейт : 128 Кбит/сек
    Каналы : 2 канала
    Расположение каналов : Front: L R
    Частота : 48,0 КГц
    Битовая глубина : 16 бит
    Метод сжатия : С потерями
    Размер потока : 40,5 Мбайт (6%)
    Выравнивание : Разделение по промежуткам
    Продолжительность промежутка : 40 мс. (1,00 видеокадр)
    Время предзагрузки промежутка : 500 мс.

    Скриншоты для ознакомления:



    Залил: avproh
    Размер скачиваемого торрента: 6.68 GB (7173664768 Bytes)

    Братья по обмену (2013) DVDRip от New-Team | лицензия скачать через торрент бесплатно
    загрузка...
    Рейтинг →
     (голосов: 1, оценка 4/5, голосовать можно 1 раз )

    Другие торренты по теме:

  • Братья по крови (Кровные братья) / The Blood Brothers (Ci Ma) / 1973 / ПМ / BDRip (1080p)
  • Гримм Братья - По следам Бременских Музыкантов (1973) (2012) FLAC
  • OST - Братья по оружию / Band of Brothers (2010) MP3
  • Братья по оружию (10 серий из 10) / Band of Brothers (2001) BDRip 720p от NoLimits-Team
  • Грот - Братья по умолчанию (2013) МР3
  • Войны байкеров / Байкеры: Братья по оружию / Bikie Wars: Brothers in Arms (2012) BDRip 720р | FilmGate скачать через торрент бесплатно
  • Братья по обмену (2013) SATRip
  • Братья по обмену (2013) DVB


    • Комментарии (0):

      Информация

      Информация

        Посетители, находящиеся в группе Гости, не могут оставлять комментарии в данной новости.

        ↓ Меню



        ↓ Опрос

        А Вы добавили сайт в закладки?
        Да
        Не


        Top 10 за месяц (Фильмы)