.
Авторизация | Регистрация
Хочешь лучшие торренты? Добавь свой email!
Добавить
» » Возврат / The Returned (2013) BDRip 1080p от CINEMANIA | L2 скачать через торрент бесплатно




    Возврат / The Returned (2013) BDRip 1080p от CINEMANIA | L2 скачать через торрент бесплатно

    Опубликовал: Админ | Дата: 27-02-2015, 11:10 | Просмотров: 224



    Детально о кино
    Русское название: Возврат
    Русское название в мировом прокате: The Returned
    Создали в: 2013
    Категория жанра: ужасы, триллер, драма
    Главный режиссер: Мануэль Карбальо
    Актеры: Кристен Холден-Рид, Эмили Хэмпшир, Шон Дойл, Клаудия Бассольс, Паулино Нюнс, Мелина Мэтьюз, Пол Энтони, Бэрри Флэтмэн, Джэми Лайл, Эмили Алатало

    Сюжет фильма:
    Медсестра Кейт работает в госпитале для тех, кто оказался заражен вирусом, превращающим людей в зомби. Здесь пациентов лечат, возвращая их к нормальной жизни. Однако когда выясняется, что вакцина против вируса не всегда действует так, как на то рассчитывали врачи, принимается решение вернуть в госпиталь всех, кто проходил в нём лечение. Опасаясь за судьбу своего мужа Джейсона, который прошёл через процедуру Возврата, Кейт вместе с ним решается на побег, не подозревая, к чему это приведет...



    Снималось в: Испания, Канада
    Время просмотра: 01:37:53
    Тип перевода: Любительское (двухголосое) DeadSno den904
    перевод на русский язык МЕГАПЫХАРЬ и ОХ! Студия

    Файл
    Тип видео: MKV
    Качество фильма: BDRip 1080p PHD
    Информация о видео: 9819 kb/s, 1920x816
    Информация о звуке: Russian: AC3, 448 kb/s (6 ch) / English: DTS, 1510 kb/s (6 ch)
    Субтитры: English
    Дополнительно: Сохранены оригинальные чаптеры как на Blu-ray
    Размер скачиваемого торрента: 7.70 GB
    Скачать: Сэмпл

    Релиз группы:



    NFO
    Общее
    The.Returned.2013.Blu.Ray.1080p.CINEMANIA.mkv
    Формат : Matroska
    Версия формата : Version 4 / Version 2
    Размер файла : 7,70 Гбайт
    Продолжительность : 1 ч. 37 м.
    Общий поток : 11,3 Мбит/сек
    Название фильма : Release Group CINEMANIA
    Дата кодирования : UTC 2014-03-31 18:39:14
    Программа кодирования : mkvmerge v6.8.0 (;Theme for Great Cities;) 64bit built on Mar 2 2014 21:34:26
    Библиотека кодирования : libebml v1.3.0 libmatroska v1.4.1

    Видео
    Идентификатор : 1
    Формат : AVC
    Формат/Информация : Advanced Video Codec
    Профиль формата : High@L4.1
    Параметр CABAC формата : Да
    Параметр ReFrames формата : 5 кадров
    Идентификатор кодека : V_MPEG4/ISO/AVC
    Продолжительность : 1 ч. 37 м.
    Битрейт : 9819 Кбит/сек
    Ширина : 1920 пикселей
    Высота : 816 пикселей
    Соотношение сторон : 2,35:1
    Режим частоты кадров : Постоянный
    Частота кадров : 24,000 кадра/сек
    Цветовое пространство : YUV
    Субдискретизация насыщенности : 4:2:0
    Битовая глубина : 8 бит
    Тип развёртки : Прогрессивная
    Бит/(Пиксели*Кадры) : 0.261
    Размер потока : 6,71 Гбайт (87%)
    Заголовок : Release Group CINEMANIA
    Язык : English
    Default : Да
    Forced : Нет

    Аудио #1
    Идентификатор : 2
    Формат : AC-3
    Формат/Информация : Audio Coding 3
    Расширение режима : CM (complete main)
    Параметр Endianness формата : Big
    Идентификатор кодека : A_AC3
    Продолжительность : 1 ч. 37 м.
    Вид битрейта : Постоянный
    Битрейт : 448 Кбит/сек
    Каналы : 6 каналов
    Расположение каналов : Front: L C R, Side: L R, LFE
    Частота : 48,0 КГц
    Битовая глубина : 16 бит
    Метод сжатия : С потерями
    Размер потока : 314 Мбайт (4%)
    Заголовок : Влад и Снежинка
    Язык : Russian
    Default : Да
    Forced : Да

    Аудио #2
    Идентификатор : 3
    Формат : DTS
    Формат/Информация : Digital Theater Systems
    Режим : 16
    Параметр Endianness формата : Big
    Идентификатор кодека : A_DTS
    Продолжительность : 1 ч. 37 м.
    Вид битрейта : Постоянный
    Битрейт : 768 Кбит/сек
    Каналы : 6 каналов
    Расположение каналов : Front: L C R, Side: L R, LFE
    Частота : 48,0 КГц
    Битовая глубина : 24 бит
    Метод сжатия : С потерями
    Размер потока : 538 Мбайт (7%)
    Язык : English
    Default : Нет
    Forced : Нет

    Текст
    Идентификатор : 4
    Формат : UTF-8
    Идентификатор кодека : S_TEXT/UTF8
    Идентификатор кодека/Информация : UTF-8 Plain Text
    Язык : English
    Default : Нет
    Forced : Нет

    Меню
    00:00:00.000 : en:00:00:00.000
    00:08:15.833 : en:00:08:15.833
    00:15:57.958 : en:00:15:57.958
    00:24:25.667 : en:00:24:25.667
    00:31:46.167 : en:00:31:46.167
    00:39:19.667 : en:00:39:19.667
    00:47:25.833 : en:00:47:25.833
    00:55:44.625 : en:00:55:44.625
    01:10:24.375 : en:01:10:24.375
    01:17:47.208 : en:01:17:47.208
    01:25:02.042 : en:01:25:02.042
    01:32:38.542 : en:01:32:38.542

    Залил: DGEKIGAN
    Размер скачиваемого торрента: 7.70 GB (8265956164 Bytes)

    Возврат / The Returned (2013) BDRip 1080p от CINEMANIA | L2 скачать через торрент бесплатно
    загрузка...
    Рейтинг →
     (голосов: 1, оценка 5/5, голосовать можно 1 раз )

    Другие торренты по теме:

  • Возврат / Z odzysku (2006) DVDRip от ClubTorrent
  • Возврат / Cashback (2006) BDRip 1080p от MediaClub | P
  • Возврат / Cashback (2006) BDRip 720p от MediaClub | P скачать через торрент бесплатно
  • Возврат / Сдача / Вернуть наличкой / Cashback (2006) BDRip от HQCLUB скачать через торрент бесплатно
  • Возврат / Сдача / Вернуть наличкой / Cashback (2006) BDRip-AVC | P2, A скачать через торрент бесплатно
  • Возврат / The Returned (2013) BDRip 720p от CINEMANIA | L2 скачать через торрент бесплатно
  • Возврат / The Returned (2013) HDRip от super12308 | L2
  • Возврат / The Returned (2013) HDRip от Torrange | L2 скачать через торрент бесплатно


    • Комментарии (0):

      Информация

      Информация

        Посетители, находящиеся в группе Гости, не могут оставлять комментарии в данной новости.

        ↓ Меню



        ↓ Опрос

        А Вы добавили сайт в закладки?
        Да
        Не


        Top 10 за месяц (Фильмы)