.
Авторизация | Регистрация
» » Денежный поезд / Money Train (1995) DVD9 от NovaLan скачать через торрент бесплатно




    Денежный поезд / Money Train (1995) DVD9 от NovaLan скачать через торрент бесплатно

    Опубликовал: Админ | Дата: 27-02-2015, 11:10 | Просмотров: 283



    Русское название: Денежный поезд
    Русское название в мировом прокате: Money Train
    Создали в: 1995
    Категория жанра: Боевик, триллер, драма, комедия, криминал
    Главный режиссер: Джозеф Рубин
    Актеры: Уэсли Снайпс, Вуди Харрельсон, Дженнифер Лопес, Роберт Блейк, Крис Купер, Джо Грифази, Скотт Сауэрс, Скипп Саддат, Винсент Лареска, Нельсон Васкес, Винсент Патрик, Аида Туртурро, Винсент Пасторе, Грегори МакКинни, Митч Колпан, Джереми Робертс, Джон Норман Томас, Они Фаида Лэмпли, Джек О’Коннелл, Сол Стайн, Мэнни Сиверио, Джон Ченатьемпо, Энрико Колантони, Дин Норрис, Ричард Гроув, Стивен Рандаззо, Уильям Чарлтон, Мосс Портер, Кейт Леон Уильямс, Хосе Суньига, Томас Дж. Уэйтс, Кевин Гай Браун, Билл Нанн, Шарон Шаффер, Энджел Кабан, Джо Бачино, Флекс Александр, Кэти Гилл
    Сюжет фильма:
    Два сводных брата, белый и чернокожий, с детства мечтавшие лишь об одном - разбогатеть, задумывают дерзкое ограбление. Цель налетчиков - поезд метро, каждую ночь перевозящий миллионы по тоннелям нью-йоркской подземки. Только два обстоятельства останавливают их: они оба полицейские, а поезд находится под личной охраной их босса. Но соблазн слишком велик, да и вредному боссу, накануне уволившему их со службы, насолить очень уж хочется, и вот - в новогоднюю ночь пара новоявленных грабителей решает осуществить то, о чем они грезили всю жизнь - угнать поезд и стать миллионерами…

    Снималось в: США, Columbia Pictures, Peters Entertainment
    Время просмотра: 01:45:36
    Перевод текста: Дублированный / Профессиональный многоголосый / Авторский одноголосый (Санаев)

    Кодек для видео: MPEG-2
    Качество фильма: DVD-9
    Информация о видео: PAL 16:9 (720x576) VBR
    Информация о звуке: Русский, английский (Dolby AC3, 6 ch), русский (Dolby AC3, 2 ch)
    Субтитры: Русские, английские

    Релиз группы NovaLan
    Автор релиза Sergei7721


    DVDInfo
    Title:
    Title:
    Size: 7.64 Gb ( 8 009 004 KBytes ) - DVD-9
    Enabled regions: 1, 2, 3, 4, 5, 6, 7, 8

    VTS_01 :
    Play Length: 01:45:36
    Video: PAL 16:9 (720x576) VBR, Auto PanScan
    Audio:
    Russian (Dolby AC3, 6 ch)
    Russian (Dolby AC3, 6 ch)
    English (Dolby AC3, 6 ch)
    Russian (Dolby AC3, 2 ch)
    Subtitles:
    Russian
    English

    VTS_02 :
    Play Length: 00:02:42
    Video: PAL 16:9 (720x576) VBR, Auto PanScan
    Audio:
    English (Dolby AC3, 2 ch)

    VTS_03 :
    Play Length: 00:00:08
    Video: PAL 16:9 (720x576) VBR, Auto PanScan

    Menu Video:
    NTSC 4:3 (720x480) VBR
    Auto PanScan, Auto Letterboxed
    Menu English Language Unit :
    Root Menu
    Subpicture Menu
    Audio Menu
    Chapter (PTT) Menu

    MediaInfo

    Полное имя : C:UsersСергейDownloadsРаздачиMoney.Train.1995.DVD9.NovaLanVIDEO_TSVTS_01_1.VOB
    Формат : MPEG-PS
    Размер файла : 1024 Мбайт
    Продолжительность : 14 м.
    Режим общего битрейта : Переменный
    Общий поток : 9963 Кбит/сек

    Видео
    Идентификатор : 224 (0xE0)
    Формат : MPEG Video
    Версия формата : Version 2
    Профиль формата : Main@Main
    Параметр BVOP формата : Да
    Параметр матрицы формата : Выборочная
    Продолжительность : 14 м.
    Вид битрейта : Переменный
    Битрейт : 8300 Кбит/сек
    Ширина : 720 пикселей
    Высота : 576 пикселей
    Соотношение сторон : 16:9
    Частота кадров : 25,000 кадров/сек
    Стандарт вещания : PAL
    Цветовое пространство : YUV
    Субдискретизация насыщенности : 4:2:0
    Битовая глубина : 8 бит
    Тип развёртки : Чересстрочная
    Порядок развёртки : Верхнее поле первое
    Метод сжатия : С потерями
    Бит/(Пиксели*Кадры) : 0.801
    Размер потока : 846 Мбайт (83%)

    Аудио #1
    Идентификатор : 189 (0xBD)-128 (0x80)
    Формат : AC-3
    Формат/Информация : Audio Coding 3
    Расширение режима : CM (complete main)
    Параметр Endianness формата : Big
    Режим смешивания : DVD-Video
    Продолжительность : 14 м.
    Вид битрейта : Постоянный
    Битрейт : 448 Кбит/сек
    Каналы : 6 каналов
    Расположение каналов : Front: L C R, Side: L R, LFE
    Частота : 48,0 КГц
    Битовая глубина : 16 бит
    Метод сжатия : С потерями
    Размер потока : 46,0 Мбайт (4%)

    Аудио #2
    Идентификатор : 189 (0xBD)-129 (0x81)
    Формат : AC-3
    Формат/Информация : Audio Coding 3
    Расширение режима : CM (complete main)
    Параметр Endianness формата : Big
    Режим смешивания : DVD-Video
    Продолжительность : 14 м.
    Вид битрейта : Постоянный
    Битрейт : 448 Кбит/сек
    Каналы : 6 каналов
    Расположение каналов : Front: L C R, Side: L R, LFE
    Частота : 48,0 КГц
    Битовая глубина : 16 бит
    Метод сжатия : С потерями
    Размер потока : 46,0 Мбайт (4%)

    Аудио #3
    Идентификатор : 189 (0xBD)-130 (0x82)
    Формат : AC-3
    Формат/Информация : Audio Coding 3
    Расширение режима : CM (complete main)
    Параметр Endianness формата : Big
    Режим смешивания : DVD-Video
    Продолжительность : 14 м.
    Вид битрейта : Постоянный
    Битрейт : 448 Кбит/сек
    Каналы : 6 каналов
    Расположение каналов : Front: L C R, Side: L R, LFE
    Частота : 48,0 КГц
    Битовая глубина : 16 бит
    Метод сжатия : С потерями
    Размер потока : 46,0 Мбайт (4%)

    Аудио #4
    Идентификатор : 189 (0xBD)-131 (0x83)
    Формат : AC-3
    Формат/Информация : Audio Coding 3
    Расширение режима : CM (complete main)
    Параметр Endianness формата : Big
    Режим смешивания : DVD-Video
    Продолжительность : 14 м.
    Вид битрейта : Постоянный
    Битрейт : 192 Кбит/сек
    Каналы : 2 канала
    Расположение каналов : Front: L R
    Частота : 48,0 КГц
    Битовая глубина : 16 бит
    Метод сжатия : С потерями
    Размер потока : 19,7 Мбайт (2%)

    Текст #1
    Идентификатор : 189 (0xBD)-32 (0x20)
    Формат : RLE
    Формат/Информация : Run-length encoding
    Режим смешивания : DVD-Video

    Текст #2
    Идентификатор : 189 (0xBD)-33 (0x21)
    Формат : RLE
    Формат/Информация : Run-length encoding
    Режим смешивания : DVD-Video

    Скриншоты для ознакомления меню




    Релиз подготовил:


    Залил: Sergei7721
    Размер скачиваемого торрента: 7.64 GB (8201148416 Bytes)

    Денежный поезд / Money Train (1995) DVD9 от NovaLan скачать через торрент бесплатно
    загрузка...
    Рейтинг →
     (голосов: 1, оценка 5/5, голосовать можно 1 раз )

    Другие торренты по теме:

  • Денежный поезд / Money Train (1995) HDRip | D торрент скачать бесплатно
  • Денежный поезд / Money Train (1995) BDRip 720p от leonardo 59 Scarabey торрент скачать бесплатно
  • Денежный поезд / Money Train (1995) BDRip-AVC от HQCLUB торрент скачать бесплатно
  • Денежный поезд / Money Train (1995) HDRip | Гаврилов торрент скачать бесплатно
  • Денежный поезд / Money Train / 1995 / ПМ, АП (Живов, Санаев) / BDRip скачать торрент бесплатно
  • Денежный поезд / Money Train (1995) BDRip 1080p | D, P, A скачать торрент бесплатно


    • Комментарии (0):

      Информация

      Информация

        Посетители, находящиеся в группе Гости, не могут оставлять комментарии в данной новости.

        ↓ Меню



        ↓ Опрос

        А Вы добавили сайт в закладки?
        Да
        Не


        Top 10 за неделю (Фильмы)