.
Авторизация | Регистрация
» » Сквозь снег / Snowpiercer (2013) BDRip от Дяди Лёши | A, L2 скачать через торрент бесплатно




    Сквозь снег / Snowpiercer (2013) BDRip от Дяди Лёши | A, L2 скачать через торрент бесплатно

    Опубликовал: Админ | Дата: 27-02-2015, 11:10 | Просмотров: 184



    Снималось в: Корея Южная, США, Франция, Чехия
    Категория жанра: фантастика, боевик, драма

    Создали в: 2013

    Время просмотра: 02:05:53

    Перевод текста: Любительский (двухголосый DeadSno den904 ) Авторский (одноголосый) Есарев Оригинальный (отдельно яндекс диск) субтитры русские (нотабеноид)

    Главный режиссер: Пон Чжун Хо / Bong Joon Ho

    Актеры:

    Крис Эванс (Curtis), Сон Кан Хо (Namgoong Minsu), Тильда Суинтон (Mason), Джейми Белл (Edgar), Октавия Спенсер (Tanya), Юэн Бремнер (Andrew), Элисон Пилл, Ко А Сон (Yona), Эд Харрис (Wilford), Джон Хёрт (Gilliam), Люк Паскуалино (Grey), Кенни Даути

    Сюжет: Земля. Недалекое будущее. Семнадцать лет назад на планете произошла техногенная катастрофа. Там, где раньше росли леса и цвели сады, теперь лежат снег и лед. Жизнь сохранилась лишь в гигантском поезде, без остановки мчащемся по трансевразийской магистрали. В первых вагонах состава живет правящая элита, во множестве последних - простые люди. Жизнь в хвосте поезда напоминает концлагерь - болезни, нищета, беспредел надсмотрщиков. Но именно здесь из среды униженных и оскорбленных восстает человек, способный восстановить справедливость. Однако у каждой благородной идеи есть своя темная сторона, и любая революция пожирает своих детей.



    MPAA: R - Лицам до 17 лет обязательно присутствие взрослого

    Качество фильма: BDRip
    Контейнер: AVI
    Информация о видео: XviD, 720x384 (1.875), 1699 kbps, 23,976 fps, 0,256 bpp
    Информация о звуке №1: AC3 / 5.1 / 48 kHz / 384 kbps / 16 bit | Есарев
    Информация о звуке №2: AC3 / 5.1 / 48 kHz / 384 kbps / 16 bit | DeadSno den904

    Media Info

    General
    Complete name : E:Сквозь.снег.2013Snowpiercer.2013.BDRip.by.Дядя_Лёша.avi
    Format : AVI
    Format/Info : Audio Video Interleave
    Format profile : OpenDML
    File size : 2.19 GiB
    Duration : 2h 5mn
    Overall bit rate : 2 485 Kbps
    Writing application : VirtualDubMod 1.5.10.3 | www.virtualdub-fr.org || (build 2550/release)
    Writing library : VirtualDubMod build 2550/release

    Video
    ID : 0
    Format : MPEG-4 Visual
    Format profile : Advanced Simple@L5
    Format settings, BVOP : 1
    Format settings, QPel : No
    Format settings, GMC : No warppoints
    Format settings, Matrix : Custom
    Muxing mode : Packed bitstream
    Codec ID : XVID
    Codec ID/Hint : XviD
    Duration : 2h 5mn
    Bit rate : 1 700 Kbps
    Width : 720 pixels
    Height : 384 pixels
    Display aspect ratio : 1.875
    Frame rate : 23.976 fps
    Color space : YUV
    Chroma subsampling : 4:2:0
    Bit depth : 8 bits
    Scan type : Progressive
    Compression mode : Lossy
    Bits/(Pixel*Frame) : 0.256
    Stream size : 1.49 GiB (68%)
    Writing library : XviD 73

    Audio #1
    ID : 1
    Format : AC-3
    Format/Info : Audio Coding 3
    Mode extension : CM (complete main)
    Codec ID : 2000
    Duration : 2h 5mn
    Bit rate mode : Constant
    Bit rate : 384 Kbps
    Channel(s) : 6 channels
    Channel positions : Front: L C R, Side: L R, LFE
    Sampling rate : 48.0 KHz
    Bit depth : 16 bits
    Compression mode : Lossy
    Stream size : 346 MiB (15%)
    Alignment : Split accross interleaves
    Interleave, duration : 42 ms (1.00 video frame)
    Interleave, preload duration : 500 ms

    Audio #2
    ID : 2
    Format : AC-3
    Format/Info : Audio Coding 3
    Mode extension : CM (complete main)
    Codec ID : 2000
    Duration : 2h 5mn
    Bit rate mode : Constant
    Bit rate : 384 Kbps
    Channel(s) : 6 channels
    Channel positions : Front: L C R, Side: L R, LFE
    Sampling rate : 48.0 KHz
    Bit depth : 16 bits
    Compression mode : Lossy
    Stream size : 346 MiB (15%)
    Alignment : Split accross interleaves
    Interleave, duration : 42 ms (1.00 video frame)
    Interleave, preload duration : 500 ms



    Скриншоты для ознакомления

    Размер скачиваемого торрента: 2.19 GB (2346832527 Bytes)

    Сквозь снег / Snowpiercer (2013) BDRip от Дяди Лёши | A, L2 скачать через торрент бесплатно
    загрузка...
    Рейтинг →
     (голосов: 1, оценка 4/5, голосовать можно 1 раз )

    Другие торренты по теме:



      Комментарии (0):

      Информация

      Информация

        Посетители, находящиеся в группе Гости, не могут оставлять комментарии в данной новости.

        ↓ Меню



        ↓ Опрос

        А Вы добавили сайт в закладки?
        Да
        Не


        Top 10 за неделю (Фильмы)