.
Авторизация | Регистрация
Хочешь лучшие торренты? Добавь свой email!
Добавить
» » Маска красной смерти / The Masque of the Red Death (1964) BDRip by msltel | P скачать через торрент бесплатно




    Маска красной смерти / The Masque of the Red Death (1964) BDRip by msltel | P скачать через торрент бесплатно

    Опубликовал: Админ | Дата: 27-02-2015, 11:10 | Просмотров: 302



    Русское название: Маска красной смерти
    Русское название в мировом прокате: The Masque of the Red Death
    Создали в: 1964
    Категория жанра: Ужасы, триллер
    Снималось в: США, Великобритания, Alta Vista Productions
    Главный режиссер: Роджер Корман
    Актеры: Винсент Прайс, Хэйзел Корт, Джейн Эшер, Дэвид Уэстон, Найджел Грин, Патрик Мэги, Пол Уитсан-Джонс, Скип Мартин, Роберт Браун, Джулиан Бертон, Дэвид Дейвис, Гей Браун, Дорин Доун, Брайан Хьюлетт, Сара Брэкетт

    Сюжет фильма: Италия. XII век. Свирепствующая чума уничтожает людей без разбору. Принц Просперо, поклоняющийся Сатане, укрывается в своем замке вместе со своей возлюбленной Юлианой и молодой Франческой, чьи отец и жених становятся его пленниками. Жизнь в замке состоит из череды оргий и убийств, пока не появляется таинственный незнакомец, одетый во всё красное... Экранизация произведения Эдгара Аллана По.

    Качество фильма: BDRip
    Информация о видео: XviD, 1575 Kбит/с, 720x304
    Информация о звуке: Русский, английский (AC3, 2 ch, 192 Кбит/с)
    Размер скачиваемого торрента: 1.35 ГБ
    Время просмотра: 01:28:50
    Перевод текста: Профессиональный многоголосый

    Исходник: posodobl (Кинозал)

    Сравнение с исходником



    MediaInfo
    Общее
    Полное имя : D:VideoMaska krasnoj smerti.1964.XviD.BDRip.avi
    Формат : AVI
    Формат/Информация : Audio Video Interleave
    Размер файла : 1,35 Гбайт
    Продолжительность : 1 ч. 28 м.
    Общий поток : 2170 Кбит/сек
    Программа кодирования : VirtualDubMod 1.5.10.2 (build 2540/release)
    Библиотека кодирования : VirtualDubMod build 2540/release

    Видео
    Идентификатор : 0
    Формат : MPEG-4 Visual
    Профиль формата : Advanced Simple@L5
    Параметр BVOP формата : 1
    Параметр QPel формата : Нет
    Параметр GMC формата : Без точки перехода
    Параметр матрицы формата : Default (H.263)
    Режим смешивания : Сжатый битовый поток
    Идентификатор кодека : XVID
    Идентификатор кодека/Подсказка : XviD
    Продолжительность : 1 ч. 28 м.
    Битрейт : 1575 Кбит/сек
    Ширина : 720 пикселей
    Высота : 304 пикселя
    Соотношение сторон : 2,35:1
    Частота кадров : 23,976 кадра/сек
    Цветовое пространство : YUV
    Субдискретизация насыщенности : 4:2:0
    Битовая глубина : 8 бит
    Тип развёртки : Прогрессивная
    Метод сжатия : С потерями
    Бит/(Пиксели*Кадры) : 0.300
    Размер потока : 1001 Мбайт (73%)
    Библиотека кодирования : XviD 1.2.1 (UTC 2008-12-04)

    Аудио #1
    Идентификатор : 1
    Формат : AC-3
    Формат/Информация : Audio Coding 3
    Расширение режима : CM (complete main)
    Параметр Endianness формата : Big
    Идентификатор кодека : 2000
    Продолжительность : 1 ч. 28 м.
    Вид битрейта : Постоянный
    Битрейт : 192 Кбит/сек
    Каналы : 2 канала
    Расположение каналов : Front: L R
    Частота : 48,0 КГц
    Битовая глубина : 16 бит
    Метод сжатия : С потерями
    Размер потока : 122 Мбайт (9%)
    Выравнивание : Разделение по промежуткам
    Продолжительность промежутка : 42 мс. (1,00 видеокадр)
    Время предзагрузки промежутка : 500 мс.

    Аудио #2
    Идентификатор : 2
    Формат : AC-3
    Формат/Информация : Audio Coding 3
    Расширение режима : CM (complete main)
    Параметр Endianness формата : Big
    Идентификатор кодека : 2000
    Продолжительность : 1 ч. 28 м.
    Вид битрейта : Постоянный
    Битрейт : 192 Кбит/сек
    Каналы : 2 канала
    Расположение каналов : Front: L R
    Частота : 48,0 КГц
    Битовая глубина : 16 бит
    Метод сжатия : С потерями
    Размер потока : 122 Мбайт (9%)
    Выравнивание : Разделение по промежуткам
    Продолжительность промежутка : 42 мс. (1,00 видеокадр)
    Время предзагрузки промежутка : 500 мс.

    Аудио #3
    Идентификатор : 3
    Формат : AC-3
    Формат/Информация : Audio Coding 3
    Расширение режима : CM (complete main)
    Параметр Endianness формата : Big
    Идентификатор кодека : 2000
    Продолжительность : 1 ч. 28 м.
    Вид битрейта : Постоянный
    Битрейт : 192 Кбит/сек
    Каналы : 2 канала
    Расположение каналов : Front: L R
    Частота : 48,0 КГц
    Битовая глубина : 16 бит
    Метод сжатия : С потерями
    Размер потока : 122 Мбайт (9%)
    Выравнивание : Разделение по промежуткам
    Продолжительность промежутка : 42 мс. (1,00 видеокадр)
    Время предзагрузки промежутка : 500 мс.
    Скриншоты для ознакомления


    Залил: msltel
    Размер скачиваемого торрента: 1.35 GB (1445816320 Bytes)

    Маска красной смерти / The Masque of the Red Death (1964) BDRip by msltel | P скачать через торрент бесплатно
    загрузка...
    Рейтинг →
     (голосов: 1, оценка 3/5, голосовать можно 1 раз )

    Другие торренты по теме:

  • Темные Рассказы: Эдгар Аллан По Маска Красной Смерти / Dark Tales 5: Edgar Allan Poes The Masque of the Red Death CE (2013) PC
  • Маска красной смерти / Masque of the Red Death,The (1964) DVDRip-AVC от Тorrent-Хzona
  • Маска красной смерти / The Masque of the Red Death (1964) BDRip 1080p by msltel | P
  • Маска красной смерти / The Masque of the Red Death (1964) BDRip 720p by msltel | P скачать через торрент бесплатно
  • Маска красной смерти / The Masque of the Red Death (1964) BDRip от HQCLUB


    • Комментарии (0):

      Информация

      Информация

        Посетители, находящиеся в группе Гости, не могут оставлять комментарии в данной новости.

        ↓ Меню



        ↓ Опрос

        А Вы добавили сайт в закладки?
        Да
        Не


        Top 10 за месяц (Фильмы)