.
Авторизация | Регистрация
» » 9 месяцев строгого режима / 9 mois ferme (2013) BDRip | iPad скачать через торрент бесплатно




    9 месяцев строгого режима / 9 mois ferme (2013) BDRip | iPad скачать через торрент бесплатно

    Опубликовал: Админ | Дата: 27-02-2015, 11:10 | Просмотров: 225

    Детально о кино
    Русское название: 9 месяцев строгого режима / 9 mois ferme
    Создали в: 2013
    Категория жанра: Комедия
    Главный режиссер: Альбер Дюпонтель
    Актеры: Сандрин Киберлэн, Альбер Дюпонтель, Николя Марье, Филипп Юшан, Филипп Дюкен, Кристиан Эк, Жиль Гастон-Дрейфус, Лорэ Кэлами, Иоланда Моро, Мишель Фо


    Сюжет:
    Ариана — судья, трудоголик и блондинка с высокими моральными принципами. Никаких мужчин. Никакой семьи. Никаких детей. Только работа, только закон. Кошмарная новость — и конец идиллии — она беременна! Этого не может быть! — кричит Ариана, начиная расследование самого невероятного дела в своей жизни!Распутать его отчаянно мешают собственные принципы и знаменитый вор. Но нарушить закон Ариане все же придется. И лучше бы ей не знать, что же на самом деле произошло!






    Тех. данные


    Время просмотра: 01:22:01
    Снималось в: Франция, ADCB Films, Black Dynamite films, Canal fr, Cin?, CinГ©france 1888, France 2 Cin?ma, France T?l?visions, JD Prod, La Banque Postale Image 6, Wild Bunch
    Перевод текста: Профессиональный (дублированный) (НТВ )
    Субтитры: Английские
    Вид субтитров: Вшитые (полные, отключаемые)


    Файл
    Тип видео: M4V
    Качество фильма: BDRip SD 576p (исходник: BDRemux)
    Информация о видео: H.264, 1024x432, 2.40:1, 2 200 Kbps, 23.976 fps
    Информация о звуке: Русский/Профессиональный (дублированный) (НТВ ), AAC / 2.0 / 154 Kbps / 48.0 KHz; французский/Оригинальная дорожка , AAC / 2.0 / 156 Kbps / 48.0 KHz
    iTunes Meta Tags, x264 log и MI:

    Sort Name: 9 mois ferme
    XID: Apple:vendor_id:2013-757454
    contentID: 787673297
    Screenwriters: Альбер Дюпонтель, Гектор Кабелло Рейс, Оливье Деманжель
    Producers: Катрин Бозорган
    Director: Альбер Дюпонтель
    Cast: Сандрин Киберлэн, Альбер Дюпонтель, Николя Марье, Филипп Юшан, Филипп Дюкен, Кристиан Эк, Жиль Гастон-Дрейфус, Лорэ Кэлами, Иоланда Моро, Мишель Фо
    Rating: 66
    Long Deion: Ариана - судья, трудоголик и блондинка с высокими моральными принципами. Никаких мужчин. Никакой семьи. Никаких детей. Только работа, только закон. Кошмарная новость - и конец идиллии - она беременна! Этого не может быть! - кричит Ариана, начиная расследование самого невероятного дела в своей жизни!
    Распутать его отчаянно мешают собственные принципы и знаменитый вор. Но нарушить закон Ариане все же придется. И лучше бы ей не знать, что же на самом деле произошло!
    Deion: Ариана - судья, трудоголик и блондинка с высокими моральными принципами. Никаких мужчин. Никакой семьи. Никаких детей. Только работа, только закон. Кошмарная новость - и конец идиллии - она беременна! Этого не может быть! - кричит Ариана, начиная расследование самого невероятного дела в своей жизни!
    Распутать его отчаянно мешают собственные принципы и знаменитый вор. Но нарушить закон Ариане все же придется. И лучше бы ей не знать, что же на самом деле произошло!
    Release Date: 2013-08-25T08:00:00Z
    Genre: Comedy
    Artist: Albert Dupontel
    Name: 9 mois ferme

    /////////////////////////////////////

    x264 info: frame I:1492 Avg QP:13.00 size: 99473 PSNR Mean Y:49.62 U:51.49 V:52.38 Avg:50.22 Global:49.84
    x264 info: frame P:25917 Avg QP:15.97 size: 26548 PSNR Mean Y:46.58 U:48.64 V:49.85 Avg:47.22 Global:46.68
    x264 info: frame B:90599 Avg QP:19.00 size: 5677 PSNR Mean Y:45.27 U:47.27 V:49.19 Avg:45.96 Global:45.57
    x264 info: consecutive B-frames: 2.9% 2.0% 9.2% 17.5% 18.7% 44.1% 5.6%
    x264 info: mb I I16..4: 9.8% 60.2% 30.0%
    x264 info: mb P I16..4: 2.5% 5.4% 1.9% P16..4: 35.0% 27.3% 19.5% 0.0% 0.0% skip: 8.5%
    x264 info: mb B I16..4: 0.3% 0.4% 0.2% B16..8: 36.8% 9.2% 2.9% direct: 4.0% skip:46.1% L0:45.7% L1:43.9% BI:10.3%
    x264 info: 8x8 transform intra:54.8% inter:66.8%
    x264 info: coded y,uvDC,uvAC intra: 75.7% 81.3% 73.1% inter: 22.9% 28.9% 11.7%
    x264 info: i16 v,h,dc,p: 38% 44% 4% 15%
    x264 info: i8 v,h,dc,ddl,ddr,vr,hd,vl,hu: 14% 11% 7% 9% 12% 13% 12% 12% 12%
    x264 info: i4 v,h,dc,ddl,ddr,vr,hd,vl,hu: 12% 11% 4% 9% 13% 14% 12% 12% 13%
    x264 info: i8c dc,h,v,p: 50% 19% 17% 13%
    x264 info: Weighted P-Frames: Y:3.5% UV:1.4%
    x264 info: ref P L0: 45.3% 9.7% 18.3% 6.8% 6.2% 4.3% 4.2% 2.3% 2.6% 0.3% 0.0%
    x264 info: ref B L0: 70.2% 13.0% 6.4% 3.5% 2.6% 2.4% 1.4% 0.6%
    x264 info: ref B L1: 91.7% 8.3%
    x264 info: SSIM Mean Y:0.9849996 (18.239db)
    x264 info: PSNR Mean Y:45.613 U:47.621 V:49.372 Avg:46.290 Global:45.824 kb/s:2195.50

    /////////////////////////////////////

    General
    Complete name : /Users/imac/HandBrake/9 mois ferme (SD) (pk).m4v
    Format : MPEG-4
    Codec ID : M4V
    File size : 1.44 GiB
    Duration : 1h 22mn
    Overall bit rate mode : Variable
    Overall bit rate : 2 514 Kbps
    Movie name : 9 mois ferme
    Performer : Albert Dupontel
    Genre : Comedy
    Recorded date : UTC 2013-08-25 08:00:00
    Encoded date : UTC 2014-03-30 12:32:37
    Tagged date : UTC 2014-03-30 12:33:21
    Cover : Yes
    sonm : 9 mois ferme
    desc : Ариана - судья, трудоголик и блондинка с высокими моральными принципами. Никаких мужчин. Никакой семьи. Никаких детей. Только работа, только закон. Кошмарная новость - и конец идиллии - она беременна! Этого не может быть! - кричит Ариана, начиная расследование самого невероятного дела в своей жизни! / Распутать его отчаянно мешают собственные принципы и знаменитый вор. Но нарушить закон Ариане все же придется. И лучше бы ей не знать, что же на самом деле произошло!
    ldes : Ариана - судья, трудоголик и блондинка с высокими моральными принципами. Никаких мужчин. Никакой семьи. Никаких детей. Только работа, только закон. Кошмарная новость - и конец идиллии - она беременна! Этого не может быть! - кричит Ариана, начиная расследование самого невероятного дела в своей жизни! / Распутать его отчаянно мешают собственные принципы и знаменитый вор. Но нарушить закон Ариане все же придется. И лучше бы ей не знать, что же на самом деле произошло!
    stik : 9
    rtng : 0
    cnID : 787673297
    xid : Apple:vendor_id:2013-757454
    iTunEXTC : fr-movie|Tout public|000|

    Video #1
    ID : 1
    Format : AVC
    Format/Info : Advanced Video Codec
    Format profile : High@L3.1
    Format settings, CABAC : Yes
    Format settings, ReFrames : 9 frames
    Codec ID : avc1
    Codec ID/Info : Advanced Video Coding
    Duration : 1h 22mn
    Bit rate mode : Variable
    Bit rate : 2 200 Kbps
    Width : 1 024 pixels
    Height : 432 pixels
    Display aspect ratio : 2.40:1
    Frame rate mode : Variable
    Frame rate : 23.976 fps
    Minimum frame rate : 23.810 fps
    Maximum frame rate : 24.246 fps
    Color space : YUV
    Chroma subsampling : 4:2:0
    Bit depth : 8 bits
    Scan type : Progressive
    Bits/(Pixel*Frame) : 0.207
    Stream size : 1.26 GiB (87%)
    Writing library : x264 core 130 r2273 b3065e6
    Encoding settings : cabac=1 / ref=9 / deblock=1:0:0 / analyse=0x3:0x113 / me=umh / subme=9 / psy=1 / psy_rd=1.00:0.00 / mixed_ref=1 / me_range=32 / chroma_me=1 / trellis=1 / 8x8dct=1 / cqm=0 / deadzone=21,11 / fast_pskip=1 / chroma_qp_offset=-2 / threads=12 / lookahead_threads=1 / sliced_threads=0 / nr=0 / decimate=1 / interlaced=0 / bluray_compat=0 / constrained_intra=0 / bframes=6 / b_pyramid=2 / b_adapt=2 / b_bias=0 / direct=1 / weightb=1 / open_gop=0 / weightp=2 / keyint=240 / keyint_min=24 / scenecut=40 / intra_refresh=0 / rc_lookahead=40 / rc=2pass / mbtree=1 / bitrate=2200 / ratetol=1.0 / qcomp=0.60 / qpmin=0 / qpmax=69 / qpstep=4 / cplxblur=20.0 / qblur=0.5 / ip_ratio=1.40 / aq=1:1.00
    Language : French
    Encoded date : UTC 2014-03-30 12:32:37
    Tagged date : UTC 2014-03-30 12:33:05
    Color primaries : BT.709-5, BT.1361, IEC 61966-2-4, SMPTE RP177
    Transfer characteristics : BT.709-5, BT.1361
    Matrix coefficients : BT.709-5, BT.1361, IEC 61966-2-4 709, SMPTE RP177

    Video #2
    ID : 6
    Format : JPEG
    Codec ID : jpeg
    Duration : 1h 22mn
    Bit rate mode : Variable
    Bit rate : 712 bps
    Width : 640 pixels
    Height : 270 pixels
    Display aspect ratio : 2.40:1
    Frame rate mode : Variable
    Frame rate : 0.002 fps
    Minimum frame rate : 0.001 fps
    Maximum frame rate : 0.004 fps
    Color space : YUV
    Chroma subsampling : 4:2:0
    Bit depth : 8 bits
    Compression mode : Lossy
    Bits/(Pixel*Frame) : 2.060
    Stream size : 522 KiB (0%)
    Language : French
    Encoded date : UTC 2014-03-30 12:33:09
    Tagged date : UTC 2014-03-30 12:33:09

    Audio #1
    ID : 2
    Format : AAC
    Format/Info : Advanced Audio Codec
    Format profile : LC
    Codec ID : 40
    Duration : 1h 22mn
    Bit rate mode : Variable
    Bit rate : 154 Kbps
    Maximum bit rate : 237 Kbps
    Channel(s) : 2 channels
    Channel positions : Front: L R
    Sampling rate : 48.0 KHz
    Compression mode : Lossy
    Stream size : 90.2 MiB (6%)
    Language : Russian
    Encoded date : UTC 2014-03-30 12:32:37
    Tagged date : UTC 2014-03-30 12:33:05

    Audio #2
    ID : 3
    Format : AAC
    Format/Info : Advanced Audio Codec
    Format profile : LC
    Codec ID : 40
    Duration : 1h 22mn
    Bit rate mode : Variable
    Bit rate : 156 Kbps
    Maximum bit rate : 261 Kbps
    Channel(s) : 2 channels
    Channel positions : Front: L R
    Sampling rate : 48.0 KHz
    Compression mode : Lossy
    Stream size : 91.6 MiB (6%)
    Language : French
    Encoded date : UTC 2014-03-30 12:32:37
    Tagged date : UTC 2014-03-30 12:33:05

    Text #1
    ID : 4
    Format : Timed text
    Muxing mode : sbtl
    Codec ID : tx3g
    Duration : 1h 21mn
    Bit rate mode : Variable
    Bit rate : 50 bps
    Stream size : 29.8 KiB (0%)
    Language : English
    Encoded date : UTC 2014-03-30 12:32:37
    Tagged date : UTC 2014-03-30 12:32:37

    Text #2
    ID : 5
    Format : Apple text
    Codec ID : text
    Duration : 1h 22mn
    Bit rate mode : Variable
    Bit rate : 0 bps
    Stream size : 291 Bytes (0%)
    Language : French
    Encoded date : UTC 2014-03-30 12:33:05
    Tagged date : UTC 2014-03-30 12:33:05

    Menu
    00:00:00.000 : Chapitre 1
    00:06:17.251 : Chapitre 2
    00:15:21.920 : Chapitre 3
    00:20:28.434 : Chapitre 4
    00:24:25.629 : Chapitre 5
    00:30:11.307 : Chapitre 6
    00:39:57.225 : Chapitre 7
    00:46:25.446 : Chapitre 8
    00:58:19.826 : Chapitre 9
    01:05:30.965 : Chapitre 10
    01:14:11.610 : Chapitre 11
    01:18:04.551 : Chapitre 12
    Скриншоты для ознакомления



    Размер скачиваемого торрента: 1.44 GB (1546538651 Bytes)

    9 месяцев строгого режима / 9 mois ferme (2013) BDRip | iPad скачать через торрент бесплатно
    загрузка...
    Рейтинг →
     (голосов: 1, оценка 5/5, голосовать можно 1 раз )

    Другие торренты по теме:

  • Медовый месяц Камиллы / Camille (2007) HDRip (AVC) от ExKinoRay торрент скачать бесплатно
  • Медовый месяц в Лас-Вегасе / Honeymoon in Vegas (1992) BDRip от HQCLUB торрент скачать бесплатно
  • Девять месяцев / Nine Months (1995) HDRip | P торрент скачать бесплатно
  • Некрасов Виктор - Месяц во Франции (2013) MP3 торрент скачать бесплатно
  • Чебаркульский метеорит. Месяц спустя (2013) SATRip торрент скачать бесплатно
  • 4 месяца, 3 недели и 2 дня / 4 luni, 3 saptamani si 2 zile / 4 Months, 3 Weeks and 2 Days (2007) HDRip от Rulya74 торрент скачать бесплатно
  • Медовый месяц втроем / Thrill of a Romance (1945) DVDRip-AVC от F-Torrents торрент скачать бесплатно
  • Медовый месяц в Лас-Вегасе / Honeymoon in Vegas (1992) 1080p BDRip от FREEISLAND скачать через торрент бесплатно


    • Комментарии (0):

      Информация

      Информация

        Посетители, находящиеся в группе Гости, не могут оставлять комментарии в данной новости.

        ↓ Меню



        ↓ Опрос

        А Вы добавили сайт в закладки?
        Да
        Не


        Top 10 за неделю (Фильмы)