.
Авторизация | Регистрация
» » Крокодил Данди 2 / Crocodile Dundee 2 (1988) HDTVRip от New-Team скачать через торрент бесплатно




    Крокодил Данди 2 / Crocodile Dundee 2 (1988) HDTVRip от New-Team скачать через торрент бесплатно

    Опубликовал: Админ | Дата: 27-02-2015, 11:10 | Просмотров: 239


    Снималось в: Австралия, США
    Создали в: Rimfire Films

    Категория жанра: комедия, приключения
    Создали в: 1988
    Время просмотра: 01:46:37

    Перевод текста: Профессиональный (полное дублирование) СССР киностудия имени М. Горького
    Авторский (одноголосый закадровый)
    Дохалов, Живов, Кузнецов
    Оригинальная аудиодорожка: нет
    Субтитры подготовлены: нет

    Главный режиссер: Джон Корнелл / John Cornell

    Актеры:
    Пол Хоган, Линда Козловски, Джон Майллон, Эрни Динго, Стив Рэкмен, Джерри жерри Скилтон, Гас Мёркюрио, Джим Холт, Алек Уилсон, Чарльз С. Даттон...

    Сюжет:
    Данди, охотник на крокодилов, сменил австралийский шалаш на американский пентхаус: спит в шелковой пижаме и пьет кофе из японского фарфора. Но шляпу с крокодильими зубами, кожаные штаны и огромный нож за поясом он себе оставил — на всякий случай. Хватит ли этого, чтобы спасти любимую от колумбийской мафии?..




    Исходник: HDTVRip 1080i
    Тип релиза: HDTVRip
    Контейнер: AVI

    Информация о видео: 720x304 (1,35:1), 25 fps, XviD ~ 925 kbps avg, 0.169 bit/pixel
    Информация о звуке: 48 kHz, Dolby Digital AC3 5.1, 448 kbps DUB
    Информация о звуке: 48 kHz, Dolby Digital AC3 2.0, 192 kbps Дохалов
    Информация о звуке: 48 kHz, Dolby Digital AC3 2.0, 192 kbps Живов
    Информация о звуке: 48 kHz, Dolby Digital AC3 2.0, 192 kbps Кузнецов

    Раздача от:
    MediaInfo

    Общее
    Полное имя : Krokodil.Dandi.2.1988.HDTVRip_New-team_by_AVP_Studio.avi
    Формат : AVI
    Формат/Информация : Audio Video Interleave
    Размер файла : 1,47 Гбайт
    Продолжительность : 1 ч. 46 м.
    Общий поток : 1973 Кбит/сек
    Программа кодирования : VirtualDubModRus 1.5.10.2 (build 2542/release)
    Библиотека кодирования : VirtualDubMod build 2542/release

    Видео
    Идентификатор : 0
    Формат : MPEG-4 Visual
    Профиль формата : Advanced Simple@L5
    Параметр BVOP формата : 1
    Параметр QPel формата : Нет
    Параметр GMC формата : Без точки перехода
    Параметр матрицы формата : Выборочная
    Идентификатор кодека : XVID
    Идентификатор кодека/Подсказка : XviD
    Продолжительность : 1 ч. 46 м.
    Битрейт : 925 Кбит/сек
    Ширина : 720 пикселей
    Высота : 304 пикселя
    Соотношение сторон : 2,35:1
    Частота кадров : 25,000 кадров/сек
    Цветовое пространство : YUV
    Субдискретизация насыщенности : 4:2:0
    Битовая глубина : 8 бит
    Тип развёртки : Прогрессивная
    Метод сжатия : С потерями
    Бит/(Пиксели*Кадры) : 0.169
    Размер потока : 704 Мбайт (47%)
    Библиотека кодирования : XviD 73

    Аудио #1
    Идентификатор : 1
    Формат : AC-3
    Формат/Информация : Audio Coding 3
    Расширение режима : CM (complete main)
    Параметр Endianness формата : Big
    Идентификатор кодека : 2000
    Продолжительность : 1 ч. 46 м.
    Вид битрейта : Постоянный
    Битрейт : 448 Кбит/сек
    Каналы : 6 каналов
    Расположение каналов : Front: L C R, Side: L R, LFE
    Частота : 48,0 КГц
    Битовая глубина : 16 бит
    Метод сжатия : С потерями
    Размер потока : 341 Мбайт (23%)
    Выравнивание : Разделение по промежуткам
    Продолжительность промежутка : 40 мс. (1,00 видеокадр)
    Время предзагрузки промежутка : 500 мс.

    Аудио #2
    Идентификатор : 2
    Формат : AC-3
    Формат/Информация : Audio Coding 3
    Расширение режима : CM (complete main)
    Параметр Endianness формата : Big
    Идентификатор кодека : 2000
    Продолжительность : 1 ч. 46 м.
    Вид битрейта : Постоянный
    Битрейт : 192 Кбит/сек
    Каналы : 2 канала
    Расположение каналов : Front: L R
    Частота : 48,0 КГц
    Битовая глубина : 16 бит
    Метод сжатия : С потерями
    Размер потока : 146 Мбайт (10%)
    Выравнивание : Разделение по промежуткам
    Продолжительность промежутка : 40 мс. (1,00 видеокадр)
    Время предзагрузки промежутка : 500 мс.

    Аудио #3
    Идентификатор : 3
    Формат : AC-3
    Формат/Информация : Audio Coding 3
    Профиль формата : Dolby Digital
    Расширение режима : CM (complete main)
    Параметр Endianness формата : Big
    Идентификатор кодека : 2000
    Продолжительность : 1 ч. 46 м.
    Вид битрейта : Постоянный
    Битрейт : 192 Кбит/сек
    Каналы : 2 канала
    Расположение каналов : Front: L R
    Частота : 48,0 КГц
    Битовая глубина : 16 бит
    Метод сжатия : С потерями
    Размер потока : 146 Мбайт (10%)
    Выравнивание : Разделение по промежуткам
    Продолжительность промежутка : 40 мс. (1,00 видеокадр)
    Время предзагрузки промежутка : 500 мс.

    Аудио #4
    Идентификатор : 4
    Формат : AC-3
    Формат/Информация : Audio Coding 3
    Расширение режима : CM (complete main)
    Параметр Endianness формата : Big
    Идентификатор кодека : 2000
    Продолжительность : 1 ч. 46 м.
    Вид битрейта : Постоянный
    Битрейт : 192 Кбит/сек
    Каналы : 2 канала
    Расположение каналов : Front: L R
    Частота : 48,0 КГц
    Битовая глубина : 16 бит
    Метод сжатия : С потерями
    Размер потока : 146 Мбайт (10%)
    Выравнивание : Разделение по промежуткам
    Продолжительность промежутка : 40 мс. (1,00 видеокадр)
    Время предзагрузки промежутка : 500 мс

    Скриншоты для ознакомления



    Залил: AVPStudio
    Размер скачиваемого торрента: 1.47 GB (1575286784 Bytes)

    Крокодил Данди 2 / Crocodile Dundee 2 (1988) HDTVRip от New-Team скачать через торрент бесплатно
    загрузка...
    Рейтинг →
     (голосов: 1, оценка 4/5, голосовать можно 1 раз )

    Другие торренты по теме:

  • Крокодил Данди: Трилогия / Crocodile Dundee: Trilogy (1986-2001) HDTV 1080i, HDTVRip 1080p торрент скачать бесплатно
  • Крокодил Данди / Crocodile Dundee (1986) HDTVRip от New-Team скачать через торрент бесплатно
  • Крокодил Данди 2 / Crocodile Dundee 2 (1988) HDTVRip-AVC от New-Team торрент скачать бесплатно
  • Крокодил Данди / Crocodile Dundee (1986) HDTVRip-AVC от New-Team торрент скачать бесплатно
  • Крокодил Данди / Crocodile Dundee (1986) BDRemux 1080p | D, P, A скачать через торрент бесплатно
  • Крокодил Данди / Crocodile Dundee (1986) BDRip 720p от MediaClub скачать через торрент бесплатно
  • Крокодил Данди / Crocodile Dundee (1986) BDRip от MediaClub торрент скачать бесплатно
  • Крокодил Данди / Crocodile Dundee (1986) BDRip 1080p | D, P, A торрент скачать бесплатно


    • Комментарии (0):

      Информация

      Информация

        Посетители, находящиеся в группе Гости, не могут оставлять комментарии в данной новости.

        ↓ Меню



        ↓ Опрос

        А Вы добавили сайт в закладки?
        Да
        Не


        Top 10 за неделю (Фильмы)