.
Авторизация | Регистрация
Хочешь лучшие торренты? Добавь свой email!
Добавить
» » Добро пожаловать в капкан / Welcome to the Punch (2013) HDRip | D, A, L1 скачать через торрент бесплатно




    Добро пожаловать в капкан / Welcome to the Punch (2013) HDRip | D, A, L1 скачать через торрент бесплатно

    Опубликовал: Админ | Дата: 27-02-2015, 11:10 | Просмотров: 174



    Создали в: 2013
    Создали в: Великобритания, США / Automatik Entertainment, Between The Eyes, Scott Free Productions, Worldview Entertainment
    Категория жанра: Боевик, триллер, криминал
    Время просмотра: 01:39:38
    Перевод текста: Дублированный ТНТ - Чистый звук, Авторский (одноголосый закадровый) А.Ю.Гаврилов, Любительский (одноголосый закадровый) Е.Гаевский
    Субтитры: Русские, английские |отключаемые|
    Навигация по главам: Есть

    Главный режиссер: Эрен Криви/ Eran Creevy

    Актеры: Джеймс МакЭвой, Марк Стронг, Андреа Райзборо, Дэвид Моррисси, Джейсон Флеминг, Питер Муллан, Элайес Габел, Дэниэл Мейс, Джонни Харрис, Дэниэл Калуя, Ли Николас Харрис, Стив Орам, Наташа Литтл, Элли Дарси-Олден, Рут Шин, Роберт Порталь, Джейсон Мацца, Даниэль Брент, Кэти Мерфи, Чонради Култап, Аластер Камминг, Рэй Де-Хаан, Стивен Борри, Джинни Ди, Лорен Гарнхэм, Майк Пэриш, Энди Джой, Тереза Поуп, Саймон Элликс, Келвин Уайз, Элиз Кеведо, Джули Росс, Трэйси Гринвуд, Эндрю Тернер

    Сюжет фильма: Криминальный триллер про полицейского, который преследует заклятого врага. Бывший преступник Джейкоб Стернбуд вынужден вернуться в Лондон из своего убежища, когда его сын вовлечен в ограбление пошедшее не так. У детектива Макса Левински появляется шанс поймать человека, которому всегда удавалось уйти. Соперники снова меряются силами, но они сталкиваются с более глубоким преступным заговором, с которым вынуждены бороться, чтобы выжить. Добро пожаловать в капкан — второй фильм режиссера и сценариста Эрена Криви.


    Качество фильма: HDRip
    Тип видео: AVI
    Информация о видео: XviD, 720x304, 23,976 fps, 1644 Кbps, 0.313 bit/pixel
    Информация о звуке#1: 48 kHz, MP3, 2 ch, 128 kbps | Чистый звук
    Информация о звуке#2: 48 kHz, AC3, 6 ch, 448 kbps | Гаврилов
    Информация о звуке#3: 48 kHz, AC3, 6 ch, 448 kbps | Гаевский - нецензурный
    Информация о звуке#4: 48 kHz, AC3, 6 ch, 448 kbps | Оригинал

    MI
    Формат : AVI
    Формат/Информация : Audio Video Interleave
    Профиль формата : OpenDML
    Размер файла : 2,19 Гбайт
    Продолжительность : 1 ч. 39 м.
    Общий поток : 3146 Кбит/сек
    Название фильма : Добро пожаловать в капкан
    Жанр : боевик
    Программа кодирования : VirtualDubModRus 1.5.10.2 (build 2542/release)
    Библиотека кодирования : VirtualDubMod build 2542/release
    Правообладатель : X-torrents

    Видео
    Идентификатор : 0
    Формат : MPEG-4 Visual
    Профиль формата : Advanced Simple@L5
    Параметр BVOP формата : 2
    Параметр QPel формата : Нет
    Параметр GMC формата : Без точки перехода
    Параметр матрицы формата : Выборочная
    Режим смешивания : Сжатый битовый поток
    Идентификатор кодека : XVID
    Идентификатор кодека/Подсказка : XviD
    Продолжительность : 1 ч. 39 м.
    Битрейт : 1644 Кбит/сек
    Ширина : 720 пикселей
    Высота : 304 пикселя
    Соотношение сторон : 2,35:1
    Частота кадров : 23,976 кадра/сек
    Цветовое пространство : YUV
    Субдискретизация насыщенности : 4:2:0
    Битовая глубина : 8 бит
    Тип развёртки : Прогрессивная
    Метод сжатия : С потерями
    Бит/(Пиксели*Кадры) : 0.313
    Размер потока : 1,14 Гбайт (52%)
    Библиотека кодирования : XviD 65

    Аудио #1
    Идентификатор : 1
    Формат : MPEG Audio
    Версия формата : Version 1
    Профиль формата : Layer 3
    Идентификатор кодека : 55
    Идентификатор кодека/Подсказка : MP3
    Продолжительность : 1 ч. 39 м.
    Вид битрейта : Постоянный
    Битрейт : 128 Кбит/сек
    Каналы : 2 канала
    Частота : 48,0 КГц
    Метод сжатия : С потерями
    Задержка видео : 9 с. 984 мс.
    Размер потока : 91,2 Мбайт (4%)
    Выравнивание : Разделение по промежуткам
    Продолжительность промежутка : 42 мс. (1,00 видеокадр)
    Время предзагрузки промежутка : 504 мс.
    Заголовок : Дублированный - ТНТ

    Аудио #2
    Идентификатор : 2
    Формат : AC-3
    Формат/Информация : Audio Coding 3
    Расширение режима : CM (complete main)
    Параметр Endianness формата : Big
    Идентификатор кодека : 2000
    Продолжительность : 1 ч. 39 м.
    Вид битрейта : Постоянный
    Битрейт : 448 Кбит/сек
    Каналы : 6 каналов
    Расположение каналов : Front: L C R, Side: L R, LFE
    Частота : 48,0 КГц
    Битовая глубина : 16 бит
    Метод сжатия : С потерями
    Задержка видео : 5 мс.
    Размер потока : 319 Мбайт (14%)
    Выравнивание : Разделение по промежуткам
    Продолжительность промежутка : 42 мс. (1,00 видеокадр)
    Время предзагрузки промежутка : 500 мс.
    Заголовок : Авторский - А.Гаврилов

    Аудио #3
    Идентификатор : 3
    Формат : AC-3
    Формат/Информация : Audio Coding 3
    Расширение режима : CM (complete main)
    Параметр Endianness формата : Big
    Идентификатор кодека : 2000
    Продолжительность : 1 ч. 39 м.
    Вид битрейта : Постоянный
    Битрейт : 448 Кбит/сек
    Каналы : 6 каналов
    Расположение каналов : Front: L C R, Side: L R, LFE
    Частота : 48,0 КГц
    Битовая глубина : 16 бит
    Метод сжатия : С потерями
    Задержка видео : 10 с.
    Размер потока : 319 Мбайт (14%)
    Выравнивание : Разделение по промежуткам
    Продолжительность промежутка : 42 мс. (1,00 видеокадр)
    Время предзагрузки промежутка : 500 мс.
    Заголовок : Авторский - Гаевский (нецензурный)

    Аудио #4
    Идентификатор : 4
    Формат : AC-3
    Формат/Информация : Audio Coding 3
    Расширение режима : CM (complete main)
    Параметр Endianness формата : Big
    Идентификатор кодека : 2000
    Продолжительность : 1 ч. 39 м.
    Вид битрейта : Постоянный
    Битрейт : 448 Кбит/сек
    Каналы : 6 каналов
    Расположение каналов : Front: L C R, Side: L R, LFE
    Частота : 48,0 КГц
    Битовая глубина : 16 бит
    Метод сжатия : С потерями
    Задержка видео : 10 с.
    Размер потока : 319 Мбайт (14%)
    Выравнивание : Разделение по промежуткам
    Продолжительность промежутка : 42 мс. (1,00 видеокадр)
    Время предзагрузки промежутка : 500 мс.
    Заголовок : оригинал

    Скриншоты для ознакомления


    Размер скачиваемого торрента: 2.19 GB (2350702592 Bytes)

    Добро пожаловать в капкан / Welcome to the Punch (2013) HDRip | D, A, L1 скачать через торрент бесплатно
    загрузка...
    Рейтинг →
     (голосов: 1, оценка 5/5, голосовать можно 1 раз )

    Другие торренты по теме:

  • Добро пожаловать в капкан / Добро пожаловать в Панч / Welcome to the Punch (2013) BDRip от HQCLUB
  • Добро пожаловать в капкан / Добро пожаловать в Панч / Welcome to the Punch (2013) BDRip от HQCLUB | Лицензия
  • Добро пожаловать в рай / Into the Blue (2005) BDRip 1080p от FfClub
  • Добро пожаловать в Музпорт / Welcome to Mooseport (2004) HDTVRip 720p от Youtracker | P, L2
  • Добро пожаловать в Лэйквью! / Lakeview Terrace (2008) BDRip от HQ-ViDEO
  • Добро пожаловать в рай! / Into the Blue (2005) BDRip 1080p | D, P2, A
  • Добро пожаловать в Лос-Анджелес / Welcome to L.A. (1976) DVDRip-AVC от Temperest
  • Добро пожаловать в Лэйквью / Lakeview Terrace (2008) BDRip-AVC от ExKinoRay


    • Комментарии (0):

      Информация

      Информация

        Посетители, находящиеся в группе Гости, не могут оставлять комментарии в данной новости.

        ↓ Меню



        ↓ Опрос

        А Вы добавили сайт в закладки?
        Да
        Не


        Top 10 за месяц (Фильмы)