.
Авторизация | Регистрация
Хочешь лучшие торренты? Добавь свой email!
Добавить
» » Король комедии / The King of Comedy (1982) HDRip-AVC | P2, A скачать через торрент бесплатно




    Король комедии / The King of Comedy (1982) HDRip-AVC | P2, A скачать через торрент бесплатно

    Опубликовал: Админ | Дата: 27-02-2015, 11:10 | Просмотров: 218

    Король комедии / The King of comedy



    Детально о кино
    Русское название: Король комедии
    Русское название в мировом прокате: The King of Comedy
    Снималось в: США
    Категория жанра: драма, комедия
    Создали в: 1982
    Время просмотра: 01:48:59

    Перевод текста: Профессиональный (двухголосый закадровый), Авторский (одноголосый закадровый) Василий Горчаков
    Субтитры подготовлены: русские, английские (SRT)

    Главный режиссер: Мартин Скорсезе / Martin Scorsese

    Актеры: Роберт Де Ниро, Джерри Льюис, Дайэнн Эбботт, Сандра Бернхард, Шелли Хэк, Эд Херлихи, Лу Браун, Лоретта Туппер, Винни Гонзалес

    Сюжет:
    Неутомимый неудачник Руперт Папкин уверен, что он призван быть гениальным юмористом. Вопреки полному отсутствию таланта, он точно знает, что его ждет немеркнущая слава блистательного шоумена. Нужно лишь один разок выступить перед зрителями — и он станет звездой.
    Решив начать свою карьеру с самого верха, Руперт осаждает популярнейшего ведущего Вечернего шоу Джерри Лэнгфорда, чтобы тот позволил ему выступить в своей передаче. Но легендарный комик не желает иметь ничего общего с этим самоуверенным бездарем.
    Получая отказ за отказом, Руперт, в конце концов, решается на отчаянный шаг, не сомневаясь, что теперь-то весь мир узнает о нем…



    Качество фильма: HDRip-AVC BDRip 720p
    Информация о видео: 848x456 (1.85:1), 23.976 fps, ~1511 kbps avg, 0.163 bit/pixel
    Информация о звуке 1: 48 kHz, AC3 Dolby Digital, 2/0 (L,R) ch, ~192 kbps - Двухголоска
    Информация о звуке 2: 48 kHz, AC3 Dolby Digital, 2/0 (L,R) ch, ~192 kbps - Горчаков

    MI
    Format : Matroska
    Format version : Version 4 / Version 2
    File size : 1.44 GiB
    Duration : 1h 48mn
    Overall bit rate : 1 896 Kbps
    Encoded date : UTC 2014-03-28 19:52:16
    Writing application : mkvmerge v6.5.0 (;Isn;t she lovely;) built on Oct 20 2013 12:50:05
    Writing library : libebml v1.3.0 libmatroska v1.4.1

    Video
    ID : 1
    Format : AVC
    Format/Info : Advanced Video Codec
    Format profile : High@L4.1
    Format settings, CABAC : Yes
    Format settings, ReFrames : 12 frames
    Codec ID : V_MPEG4/ISO/AVC
    Duration : 1h 48mn
    Bit rate : 1 511 Kbps
    Width : 848 pixels
    Height : 456 pixels
    Display aspect ratio : 1.85:1
    Frame rate mode : Constant
    Frame rate : 23.976 fps
    Color space : YUV
    Chroma subsampling : 4:2:0
    Bit depth : 8 bits
    Scan type : Progressive
    Bits/(Pixel*Frame) : 0.163
    Stream size : 1.12 GiB (78%)
    Writing library : x264 core 130 r2273 b3065e6
    Encoding settings : cabac=1 / ref=12 / deblock=1:-1:-1 / analyse=0x3:0x113 / me=umh / subme=9 / psy=1 / psy_rd=1.02:0.20 / mixed_ref=1 / me_range=32 / chroma_me=1 / trellis=1 / 8x8dct=1 / cqm=0 / deadzone=21,11 / fast_pskip=1 / chroma_qp_offset=-3 / threads=6 / lookahead_threads=1 / sliced_threads=0 / nr=0 / decimate=1 / interlaced=0 / bluray_compat=0 / constrained_intra=0 / bframes=10 / b_pyramid=2 / b_adapt=1 / b_bias=0 / direct=1 / weightb=1 / open_gop=0 / weightp=2 / keyint=250 / keyint_min=23 / scenecut=40 / intra_refresh=0 / rc_lookahead=70 / rc=2pass / mbtree=1 / bitrate=1511 / ratetol=1.0 / qcomp=0.60 / qpmin=0 / qpmax=69 / qpstep=4 / cplxblur=20.0 / qblur=0.5 / ip_ratio=1.40 / aq=1:0.90
    Default : Yes
    Forced : No

    Audio #1
    ID : 2
    Format : AC-3
    Format/Info : Audio Coding 3
    Mode extension : CM (complete main)
    Format settings, Endianness : Big
    Codec ID : A_AC3
    Duration : 1h 48mn
    Bit rate mode : Constant
    Bit rate : 192 Kbps
    Channel(s) : 2 channels
    Channel positions : Front: L R
    Sampling rate : 48.0 KHz
    Bit depth : 16 bits
    Compression mode : Lossy
    Stream size : 150 MiB (10%)
    Language : Russian
    Default : Yes
    Forced : No

    Audio #2
    ID : 3
    Format : AC-3
    Format/Info : Audio Coding 3
    Mode extension : CM (complete main)
    Format settings, Endianness : Big
    Codec ID : A_AC3
    Duration : 1h 48mn
    Bit rate mode : Constant
    Bit rate : 192 Kbps
    Channel(s) : 2 channels
    Channel positions : Front: L R
    Sampling rate : 48.0 KHz
    Bit depth : 16 bits
    Compression mode : Lossy
    Stream size : 150 MiB (10%)
    Language : Russian
    Default : No
    Forced : No

    Text #1
    ID : 4
    Format : UTF-8
    Codec ID : S_TEXT/UTF8
    Codec ID/Info : UTF-8 Plain Text
    Language : Russian
    Default : No
    Forced : No

    Text #2
    ID : 5
    Format : UTF-8
    Codec ID : S_TEXT/UTF8
    Codec ID/Info : UTF-8 Plain Text
    Language : English
    Default : No
    Forced : No

    Menu
    00:00:00.000 : en:00:00:00.000
    00:03:14.319 : en:00:03:14.319
    00:05:47.931 : en:00:05:47.931
    00:11:06.624 : en:00:11:06.624
    00:13:37.191 : en:00:13:37.191
    00:14:57.939 : en:00:14:57.939
    00:23:38.709 : en:00:23:38.709
    00:29:40.737 : en:00:29:40.737
    00:32:05.590 : en:00:32:05.590
    00:36:30.021 : en:00:36:30.021
    00:38:20.173 : en:00:38:20.173
    00:41:12.679 : en:00:41:12.679
    00:44:44.140 : en:00:44:44.140
    00:52:31.315 : en:00:52:31.315
    01:01:18.091 : en:01:01:18.091
    01:05:16.037 : en:01:05:16.037
    01:09:30.625 : en:01:09:30.625
    01:14:34.929 : en:01:14:34.929
    01:17:00.991 : en:01:17:00.991
    01:18:32.041 : en:01:18:32.041
    01:21:53.742 : en:01:21:53.742
    01:24:58.218 : en:01:24:58.218
    01:26:29.267 : en:01:26:29.267
    01:30:22.000 : en:01:30:22.000
    01:32:23.288 : en:01:32:23.288
    01:35:06.284 : en:01:35:06.284
    01:42:39.987 : en:01:42:39.987
    01:45:19.146 : en:01:45:19.146
    Скриншоты для ознакомления

    Размер скачиваемого торрента: 1.44 GB (1549782399 Bytes)

    Король комедии / The King of Comedy (1982) HDRip-AVC | P2, A скачать через торрент бесплатно
    загрузка...
    Рейтинг →
     (голосов: 1, оценка 5/5, голосовать можно 1 раз )

    Другие торренты по теме:

  • Король комедии / The King of Comedy (1982) WEB-DL 720p скачать через торрент бесплатно
  • Король комедии / The King of Comedy (1982) BDRip 720p от MediaClub | P2, A скачать через торрент бесплатно
  • Король комедии / The King of Comedy (1982) BDRemux 1080p от MediaClub | P2, A скачать через торрент бесплатно
  • Король комедии / The King of Comedy (1982) BDRip от HQ-ViDEO скачать через торрент бесплатно
  • Король комедии / The King of Comedy (1982) BDRemux от HQ-ViDEO скачать через торрент бесплатно
  • Король комедии / The King of Comedy (1982) BDRip-AVC от MediaClub скачать через торрент бесплатно


    • Комментарии (0):

      Информация

      Информация

        Посетители, находящиеся в группе Гости, не могут оставлять комментарии в данной новости.

        ↓ Меню



        ↓ Опрос

        А Вы добавили сайт в закладки?
        Да
        Не


        Top 10 за месяц (Фильмы)