.
Авторизация | Регистрация
Хочешь лучшие торренты? Добавь свой email!
Добавить
» » Значит, война / This Means War (2012) BDRemux 1080p от NovaLan | Расширенная версия / Unrated Cut торрент скачать бесплатно




    Значит, война / This Means War (2012) BDRemux 1080p от NovaLan | Расширенная версия / Unrated Cut торрент скачать бесплатно

    Опубликовал: Админ | Дата: 27-02-2015, 11:10 | Просмотров: 251



    Русское название: Значит, война
    Русское название в мировом прокате: This Means War
    Создали в: 2012
    Категория жанра: Боевик, мелодрама, комедия
    Главный режиссер: МакДжи
    Актеры: Том Харди, Крис Пайн, Риз Уизерспун, Тиль Швайгер, Челси Хэндлер, Джон Пол Руттан, Эбигейл Спенсер, Анджела Бассетт, Розмари Харрис, Джордж Тулиатос, Клинт Карлтон, Уоррен Кристи, Лила Саваста, Наташа Мальте, Лора Вандервурт, Доминик Браун, Пол Ву, Дарен А. Херберт, Кевин О’Грэйди, Джесси Рейд, Вив Ликок, Дженни Слейт, Кэйси Рин Мазак, Кеван Охтци, Байлин Патри, Алекс Паунович, Джой Форфеллоу, Джейкоб Дейвис, Патрик Монро, Элизабет Вайнштейн, Эш Ли

    Сюжет фильма:
    Два секретных агента, которые к тому же и закадычные друзья, влюбляются в одну и ту же женщину, но ни один не желает уступить другому.


    Снималось в: США
    Время просмотра: 01:44:00.256
    Перевод текста: Дублированный / Авторский одноголосый (Антон Карповский)

    Кодек для видео: H.264
    Качество фильма: Blu-Ray Remux 1080p - исходник - This Means War 2012 UNRATED 2in1 BluRay 1080p AVC DTS-HD MA5 1-CHDBits PublicHD
    Информация о видео: MPEG-4 AVC, 23836 Кбит/с, 1920x1080, 23.976 кадр/с
    Информация о звуке: Русский (DTS, 6 ch, 768 Кбит/с), (AC3, 6 ch, 448 Кбит/с), украинский (AC3, 6 ch, 448 Кбит/с), английский (DTS-HD MA, 6 ch, 3799 Кбит/с), (AC3, 2 ch, 224 Кбит/с) - коментарии
    Субтитры: Русские (форсированные, полные), украинские, английские

    Инфо-файл

    Полное имя : E:Раздачи_EThis.Means.War.2012.UNRATED.BDRemux.1080p.NovaLan.mkv
    Формат : Matroska
    Версия формата : Version 4 / Version 2
    Размер файла : 21,5 Гбайт
    Продолжительность : 1 ч. 44 м.
    Режим общего битрейта : Переменный
    Общий поток : 29,5 Мбит/сек
    Название фильма : This Means War 2012 - NovaLan
    Дата кодирования : UTC 2014-04-01 16:40:27
    Программа кодирования : mkvmerge v6.8.0 (;Theme for Great Cities;) 64bit built on Mar 2 2014 21:34:26
    Библиотека кодирования : libebml v1.3.0 libmatroska v1.4.1

    Видео
    Идентификатор : 1
    Формат : AVC
    Формат/Информация : Advanced Video Codec
    Профиль формата : High@L4.1
    Параметр CABAC формата : Да
    Параметр ReFrames формата : 2 кадра
    Идентификатор кодека : V_MPEG4/ISO/AVC
    Продолжительность : 1 ч. 44 м.
    Вид битрейта : Переменный
    Битрейт : 25,2 Мбит/сек
    Ширина : 1920 пикселей
    Высота : 1080 пикселей
    Соотношение сторон : 16:9
    Частота кадров : 23,976 кадра/сек
    Цветовое пространство : YUV
    Субдискретизация насыщенности : 4:2:0
    Битовая глубина : 8 бит
    Тип развёртки : Прогрессивная
    Бит/(Пиксели*Кадры) : 0.507
    Размер потока : 18,3 Гбайт (85%)
    Заголовок : This Means War 2012 - NovaLan
    Default : Да
    Forced : Нет

    Аудио #1
    Идентификатор : 2
    Формат : DTS
    Формат/Информация : Digital Theater Systems
    Идентификатор кодека : A_DTS
    Продолжительность : 1 ч. 44 м.
    Вид битрейта : Постоянный
    Битрейт : 755 Кбит/сек
    Каналы : 6 каналов
    Расположение каналов : Front: L C R, Side: L R, LFE
    Частота : 48,0 КГц
    Битовая глубина : 24 бит
    Метод сжатия : С потерями
    Размер потока : 561 Мбайт (3%)
    Язык : Russian
    Default : Да
    Forced : Нет

    Аудио #2
    Идентификатор : 3
    Формат : AC-3
    Формат/Информация : Audio Coding 3
    Расширение режима : CM (complete main)
    Параметр Endianness формата : Big
    Идентификатор кодека : A_AC3
    Продолжительность : 1 ч. 44 м.
    Вид битрейта : Постоянный
    Битрейт : 448 Кбит/сек
    Каналы : 6 каналов
    Расположение каналов : Front: L C R, Side: L R, LFE
    Частота : 48,0 КГц
    Битовая глубина : 16 бит
    Метод сжатия : С потерями
    Размер потока : 333 Мбайт (2%)
    Язык : Russian
    Default : Нет
    Forced : Нет

    Аудио #3
    Идентификатор : 4
    Формат : AC-3
    Формат/Информация : Audio Coding 3
    Расширение режима : CM (complete main)
    Параметр Endianness формата : Big
    Идентификатор кодека : A_AC3
    Продолжительность : 1 ч. 44 м.
    Вид битрейта : Постоянный
    Битрейт : 448 Кбит/сек
    Каналы : 6 каналов
    Расположение каналов : Front: L C R, Side: L R, LFE
    Частота : 48,0 КГц
    Битовая глубина : 16 бит
    Метод сжатия : С потерями
    Размер потока : 333 Мбайт (2%)
    Язык : Ukrainian
    Default : Нет
    Forced : Нет

    Аудио #4
    Идентификатор : 5
    Формат : DTS
    Формат/Информация : Digital Theater Systems
    Профиль формата : MA / Core
    Идентификатор кодека : A_DTS
    Продолжительность : 1 ч. 44 м.
    Вид битрейта : Переменный
    Битрейт : 1873 Кбит/сек / 1510 Кбит/сек
    Каналы : 6 каналов
    Расположение каналов : Front: L C R, Side: L R, LFE
    Частота : 48,0 КГц
    Битовая глубина : 24 бит
    Метод сжатия : Без потерь / Lossy
    Язык : English
    Default : Нет
    Forced : Нет

    Аудио #5
    Идентификатор : 6
    Формат : AC-3
    Формат/Информация : Audio Coding 3
    Расширение режима : CM (complete main)
    Параметр Endianness формата : Big
    Идентификатор кодека : A_AC3
    Продолжительность : 1 ч. 44 м.
    Вид битрейта : Постоянный
    Битрейт : 224 Кбит/сек
    Каналы : 2 канала
    Расположение каналов : Front: L R
    Частота : 48,0 КГц
    Битовая глубина : 16 бит
    Метод сжатия : С потерями
    Размер потока : 167 Мбайт (1%)
    Язык : English
    Default : Нет
    Forced : Нет

    Текст #1
    Идентификатор : 7
    Формат : UTF-8
    Идентификатор кодека : S_TEXT/UTF8
    Идентификатор кодека/Информация : UTF-8 Plain Text
    Язык : Russian
    Default : Да
    Forced : Да

    Текст #2
    Идентификатор : 8
    Формат : UTF-8
    Идентификатор кодека : S_TEXT/UTF8
    Идентификатор кодека/Информация : UTF-8 Plain Text
    Язык : Russian
    Default : Нет
    Forced : Нет

    Текст #3
    Идентификатор : 9
    Формат : UTF-8
    Идентификатор кодека : S_TEXT/UTF8
    Идентификатор кодека/Информация : UTF-8 Plain Text
    Язык : Russian
    Default : Нет
    Forced : Нет

    Текст #4
    Идентификатор : 10
    Формат : UTF-8
    Идентификатор кодека : S_TEXT/UTF8
    Идентификатор кодека/Информация : UTF-8 Plain Text
    Язык : Ukrainian
    Default : Нет
    Forced : Нет

    Текст #5
    Идентификатор : 11
    Формат : UTF-8
    Идентификатор кодека : S_TEXT/UTF8
    Идентификатор кодека/Информация : UTF-8 Plain Text
    Язык : English
    Default : Нет
    Forced : Нет

    Меню
    00:00:00.000 : en:Chapter 1
    00:06:05.823 : en:Chapter 2
    00:11:14.256 : en:Chapter 3
    00:15:22.463 : en:Chapter 4
    00:18:37.032 : en:Chapter 5
    00:22:51.203 : en:Chapter 6
    00:24:51.364 : en:Chapter 7
    00:28:22.700 : en:Chapter 8
    00:32:03.713 : en:Chapter 9
    00:37:39.465 : en:Chapter 10
    00:42:10.819 : en:Chapter 11
    00:45:56.253 : en:Chapter 12
    00:48:48.675 : en:Chapter 13
    00:52:16.132 : en:Chapter 14
    00:57:02.877 : en:Chapter 15
    01:03:23.257 : en:Chapter 16
    01:08:42.034 : en:Chapter 17
    01:16:30.585 : en:Chapter 18
    01:19:47.240 : en:Chapter 19
    01:23:12.362 : en:Chapter 20
    01:28:23.089 : en:Chapter 21
    01:33:12.169 : en:Chapter 22
    01:37:07.655 : en:Chapter 23
    01:38:50.049 : en:Chapter 24
    01:43:59.983 : en:Chapter 25



    Релиз группа NovaLan
    Автор сборки Sergei7721






    Релиз подготовил:


    Залил: Sergei7721
    Размер скачиваемого торрента: 21.45 GB (23033627880 Bytes)

    Значит, война / This Means War (2012) BDRemux 1080p от NovaLan | Расширенная версия / Unrated Cut торрент скачать бесплатно
    загрузка...
    Рейтинг →
     (голосов: 1, оценка 4/5, голосовать можно 1 раз )

    Другие торренты по теме:

  • Значит, война / This Means War (2012) BDRip-AVC | iPad
  • Значит, война / This Means War (2012) BDRip 720p от NNNB | D, A | Extendet Cut


    • Комментарии (0):

      Информация

      Информация

        Посетители, находящиеся в группе Гости, не могут оставлять комментарии в данной новости.

        ↓ Меню



        ↓ Опрос

        А Вы добавили сайт в закладки?
        Да
        Не


        Top 10 за месяц (Фильмы)