.
Авторизация | Регистрация
Хочешь лучшие торренты? Добавь свой email!
Добавить
» » Паранойя / Paranoia (2013) BDRip от HQCLUB | Лицензия торрент скачать бесплатно




    Паранойя / Paranoia (2013) BDRip от HQCLUB | Лицензия торрент скачать бесплатно

    Опубликовал: Админ | Дата: 27-02-2015, 11:10 | Просмотров: 227

    Паранойя / Paranoia (2013) BDRip
    от
    HQCLUB



    Детально о кино:
    Русское название: Паранойя
    Русское название в мировом прокате: Paranoia
    Создали в: 2013
    Категория жанра: триллер, драма
    Главный режиссер: Роберт Лукетич
    Актеры: Лиам Хемсворт, Гари Олдман, Эмбер Хёрд, Харрисон Форд, Лукас Тилл, Эмбет Дэвидц, Джулиан МакМэхон, Джош Холлоуэй, Ричард Дрейфусс, Анджела Сарафян

    Сюжет фильма: Адам Кэссиди - типичный белый воротничок, пытающийся преуспеть на должности молодого специалиста в крупной телекоммуникационной корпорации. После одной весьма дорогостоящей ошибки он сталкивается лицом к лицу с безжалостным президентом компании, который соглашается не увольнять провинившегося при одном условии: Адам должен шпионить за старым наставником своего босса...
    В войне двух королей, даже пешка может победить



    Релиз от -
    Автор рипа: Sky™

    Снималось в: США, Франция
    Время просмотра: 01:46:07
    Перевод текста: Профессиональный (полное дублирование) BD RUS Оригинальная звуковая дорожка (Английская)
    Субтитры: Русские (MartinaG, Е. Воронин), Английские SDH (*.srt, внешние)

    Файл:
    Тип видео: avi
    Качество фильма: BDRip (источник: / Blu-Ray Remux / 1080p)
    Информация о видео: 720x304 (2.37:1), 23.976 fps, XviD build 65 ~2040 kbps avg, 0.39 bit/pixel
    Информация о звуке #1: 48 kHz, AC3 Dolby Digital, 3/2 (L,C,R,l,r) LFE ch, ~448 kbps avg (RUS) BD RUS
    Информация о звуке #2: 48 kHz, AC3 Dolby Digital, 3/2 (L,C,R,l,r) LFE ch, ~448 kbps avg (ENG)
    Размер скачиваемого торрента: 2234.08 Mb


    MediaInfo
    Полное имя : Paranojya.2013.DUAL.BDRip.XviD.AC3.-HQCLUBParanojya.2013.DUAL.BDRip.XviD.AC3.-HQCLUB.avi
    Формат : AVI
    Формат/Информация : Audio Video Interleave
    Профиль формата : OpenDML
    Размер файла : 2,18 Гбайт
    Продолжительность : 1 ч. 46 м.
    Общий поток : 2943 Кбит/сек
    Название фильма : Паранойя / Paranoia (2013) BDRip
    Режиссёр : Sky™
    Жанр : триллер, драма
    Программа кодирования : VirtualDubMod 1.5.10.2 (build 2542/release)
    Формат оригинала/Имя : Movie
    Правообладатель : http://hqclub.net/
    Примечание : 01.04.2014

    Видео
    Идентификатор : 0
    Формат : MPEG-4 Visual
    Профиль формата : Advanced Simple@L5
    Параметр BVOP формата : 1
    Параметр QPel формата : Нет
    Параметр GMC формата : Без точки перехода
    Параметр матрицы формата : Выборочная
    Идентификатор кодека : XVID
    Идентификатор кодека/Подсказка : XviD
    Продолжительность : 1 ч. 46 м.
    Битрейт : 2030 Кбит/сек
    Ширина : 720 пикселей
    Высота : 304 пикселя
    Соотношение сторон : 2,35:1
    Частота кадров : 23,976 кадра/сек
    Цветовое пространство : YUV
    Субдискретизация насыщенности : 4:2:0
    Битовая глубина : 8 бит
    Тип развёртки : Прогрессивная
    Метод сжатия : С потерями
    Бит/(Пиксели*Кадры) : 0.387
    Размер потока : 1,50 Гбайт (69%)
    Библиотека кодирования : XviD 65

    Аудио #1
    Идентификатор : 1
    Формат : AC-3
    Формат/Информация : Audio Coding 3
    Расширение режима : CM (complete main)
    Идентификатор кодека : 2000
    Продолжительность : 1 ч. 46 м.
    Вид битрейта : Постоянный
    Битрейт : 448 Кбит/сек
    Каналы : 6 каналов
    Расположение каналов : Front: L C R, Side: L R, LFE
    Частота : 48,0 КГц
    Битовая глубина : 16 бит
    Метод сжатия : С потерями
    Размер потока : 340 Мбайт (15%)
    Выравнивание : Разделение по промежуткам
    Продолжительность промежутка : 42 мс. (1,00 видеокадр)
    Время предзагрузки промежутка : 500 мс.

    Аудио #2
    Идентификатор : 2
    Формат : AC-3
    Формат/Информация : Audio Coding 3
    Расширение режима : CM (complete main)
    Идентификатор кодека : 2000
    Продолжительность : 1 ч. 46 м.
    Вид битрейта : Постоянный
    Битрейт : 448 Кбит/сек
    Каналы : 6 каналов
    Расположение каналов : Front: L C R, Side: L R, LFE
    Частота : 48,0 КГц
    Битовая глубина : 16 бит
    Метод сжатия : С потерями
    Размер потока : 340 Мбайт (15%)
    Выравнивание : Разделение по промежуткам
    Продолжительность промежутка : 42 мс. (1,00 видеокадр)
    Время предзагрузки промежутка : 500 мс.



    Залил: Sky_™
    Размер скачиваемого торрента: 2.18 GB (2342602752 Bytes)

    Паранойя / Paranoia (2013) BDRip от HQCLUB | Лицензия торрент скачать бесплатно
    загрузка...
    Рейтинг →
     (голосов: 1, оценка 3/5, голосовать можно 1 раз )

    Другие торренты по теме:

  • Паранойя / Disturbia (2007) HDRip-AVC
  • OST - Паранойя / Disturbia (2007) MP3
  • Паранойя / Paranoia (2013) CAMRip скачать через торрент бесплатно
  • Паранойя / Paranoia (2013) CAMRip от INTERCINEMA скачать через торрент бесплатно
  • Паранойя / Paranoia (2013) HDRip-AVC | Звук с TS
  • Паранойя / Paranoia (2013) HDRip | Звук с TS
  • Паранойя / Paranoia (2013) BDRip 720p | Звук с TS
  • Паранойя / Paranoia (2013) BDRip 720p | L1, D скачать через торрент бесплатно


    • Комментарии (0):

      Информация

      Информация

        Посетители, находящиеся в группе Гости, не могут оставлять комментарии в данной новости.

        ↓ Меню



        ↓ Опрос

        А Вы добавили сайт в закладки?
        Да
        Не


        Top 10 за месяц (Фильмы)