.
Авторизация | Регистрация
Хочешь лучшие торренты? Добавь свой email!
Добавить
» » Кинотеатр Пени Ужасной / The Penny Dreadful Picture Show (2013) WEB-DLRip-AVC | L2 торрент скачать бесплатно




    Кинотеатр Пени Ужасной / The Penny Dreadful Picture Show (2013) WEB-DLRip-AVC | L2 торрент скачать бесплатно

    Опубликовал: Админ | Дата: 27-02-2015, 11:10 | Просмотров: 178



    Детально о кино
    Русское название: Кинотеатр Пени Ужасной
    Русское название в мировом прокате: The Penny Dreadful Picture Show
    Создали в: 2013
    Категория жанра: ужасы
    Главный режиссер: Ник Эверхарт, Ли Скотт, Элиза Свенсон
    Актеры: Элиза Свенсон, Сид Хэйг, Джеффри Комбс, Тайлер Эллиот Бурк, Элизабет Масуччи, Деванни Пинн, Кристина Пейдж, Джош Хэммонд, Брэндон Стэйси, Алексис Яконо

    Сюжет фильма: Вы приглашены в кино мертвецов!
    Ужасная Пени собирается в кино вместе со своими приятелями – зомби Недом, похожим на Эдварда-Руки-Ножницы, и оборотнем Волчонком. Почему бы вам не присоединится к ним? Вашему вниманию будут представлены три короткометражки, каждая из которых снята в своем неповторимом стиле и отдает дань почтения культовым ужастикам прошлых десятилетий: фильмам-слэшерам, картинам о вампирах и гигантских монстрах.




    Снималось в: США
    Киностудия: Imaginarium
    Время просмотра: 01:42:14
    Перевод текста: Любительское (двухголосое) DeadSno den904

    Файл
    Кодек для видео: h.264
    Качество фильма: WEB-DLRip-AVC
    Информация о видео: AVC, 1024 x 576, ~1721 kbps
    Информация о звуке: Русский / Английский: AC-3, 2 ch, 192 kbps
    Субтитры: Английский

    Семпл

    Скриншоты для ознакомления
    MI
    Общее
    Уникальный идентификатор : 168348648403719580577546155723716462494 (0x7EA6C532C2870C1E037BA147C20E879E)
    Полное имя : H: Кинотеатр Пени Ужасной The Penny Dreadful Picture Show (2013) WEB-DLRip-AVC The.Penny.Dreadful.Picture.Show.2013.WEB.DLRip-AVC.mkv
    Формат : Matroska
    Версия формата : Version 2
    Размер файла : 1,53 Гбайт
    Продолжительность : 1 ч. 42 м.
    Режим общего битрейта : Переменный
    Общий поток : 2148 Кбит/сек
    Программа кодирования : Lavf51.12.1
    Библиотека кодирования : Lavf51.12.1

    Видео
    Идентификатор : 1
    Формат : AVC
    Формат/Информация : Advanced Video Codec
    Профиль формата : Baseline@L3.1
    Параметр CABAC формата : Нет
    Параметр ReFrames формата : 1 кадр
    Параметр GOP формата : M=1, N=12
    Идентификатор кодека : V_MPEG4/ISO/AVC
    Продолжительность : 1 ч. 42 м.
    Вид битрейта : Переменный
    Битрейт : 1721 Кбит/сек
    Максимальный битрейт : 2640 Кбит/сек
    Ширина : 1024 пикселя
    Высота : 576 пикселей
    Соотношение сторон : 16:9
    Режим частоты кадров : Постоянный
    Частота кадров : 23,976 кадра/сек
    Частота кадров в оригинале : 24,000 кадра/сек
    Цветовое пространство : YUV
    Субдискретизация насыщенности : 4:2:0
    Битовая глубина : 8 бит
    Тип развёртки : Прогрессивная
    Бит/(Пиксели*Кадры) : 0.122
    Размер потока : 1,23 Гбайт (80%)
    Язык : English
    Default : Да
    Forced : Нет

    Аудио #1
    Идентификатор : 2
    Формат : AC-3
    Формат/Информация : Audio Coding 3
    Расширение режима : CM (complete main)
    Параметр Endianness формата : Big
    Идентификатор кодека : A_AC3
    Продолжительность : 1 ч. 42 м.
    Вид битрейта : Постоянный
    Битрейт : 192 Кбит/сек
    Каналы : 2 канала
    Расположение каналов : Front: L R
    Частота : 48,0 КГц
    Битовая глубина : 16 бит
    Метод сжатия : С потерями
    Размер потока : 140 Мбайт (9%)
    Язык : Russian
    Default : Да
    Forced : Нет

    Аудио #2
    Идентификатор : 4
    Формат : AC-3
    Формат/Информация : Audio Coding 3
    Расширение режима : CM (complete main)
    Параметр Endianness формата : Big
    Идентификатор кодека : A_AC3
    Продолжительность : 1 ч. 42 м.
    Вид битрейта : Постоянный
    Битрейт : 192 Кбит/сек
    Каналы : 2 канала
    Расположение каналов : Front: L R
    Частота : 48,0 КГц
    Битовая глубина : 16 бит
    Метод сжатия : С потерями
    Размер потока : 140 Мбайт (9%)
    Язык : English
    Default : Да
    Forced : Нет

    Текст
    Идентификатор : 3
    Формат : UTF-8
    Идентификатор кодека : S_TEXT/UTF8
    Идентификатор кодека/Информация : UTF-8 Plain Text
    Язык : English
    Default : Да
    Forced : Нет

    Размер скачиваемого торрента: 1.53 GB (1647173908 Bytes)

    Кинотеатр Пени Ужасной / The Penny Dreadful Picture Show (2013) WEB-DLRip-AVC | L2 торрент скачать бесплатно
    загрузка...
    Рейтинг →
     (голосов: 1, оценка 5/5, голосовать можно 1 раз )

    Другие торренты по теме:

  • Кинотеатр Пени Ужасной / The Penny Dreadful Picture Show (2013) WEB-DL 720p от CINEMANIA | L2 скачать через торрент бесплатно


    • Комментарии (0):

      Информация

      Информация

        Посетители, находящиеся в группе Гости, не могут оставлять комментарии в данной новости.

        ↓ Меню



        ↓ Опрос

        А Вы добавили сайт в закладки?
        Да
        Не


        Top 10 за месяц (Фильмы)