.
Авторизация | Регистрация
» » Восставший из ада 2 / Hellbound: Hellraiser II (1988) DVD9 | P, A скачать через торрент бесплатно




    Восставший из ада 2 / Hellbound: Hellraiser II (1988) DVD9 | P, A скачать через торрент бесплатно

    Опубликовал: Админ | Дата: 27-02-2015, 11:10 | Просмотров: 221



    Детально о кино
    Русское название: Восставший из ада 2
    Русское название в мировом прокате: Hellbound: Hellraiser II
    Создали в: 1988
    Категория жанра: ужасы, триллер
    Главный режиссер: Тони Рэндел
    Актеры: Эшли Лоуренс, Имоджен Бурман, Кеннет Крэнэм, Уильям Хоуп, Даг Брэдли, Клэр Хиггинс, Дебора Джоэль, Энгус МакИннес, Оливер Смит, Шон Чэпман

    Сюжет фильма:
    В наш мир возвращается мачеха Кристины Джулия, сгинувшая в геенне огненной в финале первой части фильма. Для восстановления своего физического облика ей приходится использовать те же малоприглядные средства, что в свое время и Фрэнку.

    В это же время Кристина, содержащаяся в психиатрической лечебнице, решает спасти своего томящегося в потусторонней неволе отца, для чего ей снова необходимо проникнуть за ту не всегда видимую и не всегда прочную грань, которая отделяет мир живых от мира не очень живых…




    Снималось в: Великобритания, США
    Киностудия: Film Futures, New World Pictures
    Время просмотра: 88 мин. / 01:28
    Перевод текста 1: профессиональный (двухголосый, закадровый)
    Перевод текста 2: авторский (одноголосый, закадровый)

    Файл
    Кодек для видео: MPEG2
    Качество фильма: DVD9
    Информация о видео: PAL 16:9 (720x576@1024x576) VBR 5233 Kbps, 25.000 fps
    Информация о звуке 1: Dolby AC3, 6 ch, 48.0 KHz, 448 Kbps (А.Гаврилов; английский)
    Информация о звуке 2: Dolby AC3, 2 ch, 48.0 KHz, 192 Kbps (Ю.Живов; комментарии режиссера)
    Информация о звуке 3: DTS 6 ch, 48.0 KHz, 755 Kbps (П.Гланц и И.Королева)
    Субтитры: английские

    MediaInfo
    General
    Complete name : E:Vosstavshyi.iz.ada.II.DVD9VIDEO_TSVTS_01_1.VOB
    Format : MPEG-PS
    File size : 1 024 MiB
    Duration : 19mn 18s
    Overall bit rate mode : Variable
    Overall bit rate : 7 415 Kbps

    Video
    ID : 224 (0xE0)
    Format : MPEG Video
    Format version : Version 2
    Format profile : Main@Main
    Format settings, BVOP : No
    Format settings, Matrix : Default
    Format settings, GOP : M=3, N=13
    Duration : 19mn 18s
    Bit rate mode : Variable
    Bit rate : 5 233 Kbps
    Maximum bit rate : 7 700 Kbps
    Width : 720 pixels
    Height : 576 pixels
    Display aspect ratio : 2.40:1
    Frame rate : 25.000 fps
    Standard : PAL
    Color space : YUV
    Chroma subsampling : 4:2:0
    Bit depth : 8 bits
    Scan type : Interlaced
    Scan order : Top Field First
    Compression mode : Lossy
    Bits/(Pixel*Frame) : 0.505
    Time code of first frame : 00:59:59:00
    Time code source : Group of pictures t_head
    Stream size : 722 MiB (71%)
    Color primaries : BT.601 PAL
    Transfer characteristics : BT.470 System B, BT.470 System G
    Matrix coefficients : BT.601

    Audio #1
    ID : 189 (0xBD)-128 (0x80)
    Format : AC-3
    Format/Info : Audio Coding 3
    Format profile : Dolby Digital
    Mode extension : CM (complete main)
    Format settings, Endianness : Big
    Muxing mode : DVD-Video
    Duration : 19mn 18s
    Bit rate mode : Constant
    Bit rate : 192 Kbps
    Channel(s) : 2 channels
    Channel positions : Front: L R
    Sampling rate : 48.0 KHz
    Bit depth : 16 bits
    Compression mode : Lossy
    Stream size : 26.5 MiB (3%)

    Audio #2
    ID : 189 (0xBD)-129 (0x81)
    Format : AC-3
    Format/Info : Audio Coding 3
    Mode extension : CM (complete main)
    Format settings, Endianness : Big
    Muxing mode : DVD-Video
    Duration : 19mn 17s
    Bit rate mode : Constant
    Bit rate : 448 Kbps
    Channel(s) : 6 channels
    Channel positions : Front: L C R, Side: L R, LFE
    Sampling rate : 48.0 KHz
    Bit depth : 16 bits
    Compression mode : Lossy
    Stream size : 61.8 MiB (6%)

    Audio #3
    ID : 189 (0xBD)-131 (0x83)
    Format : AC-3
    Format/Info : Audio Coding 3
    Mode extension : CM (complete main)
    Format settings, Endianness : Big
    Muxing mode : DVD-Video
    Duration : 19mn 17s
    Bit rate mode : Constant
    Bit rate : 192 Kbps
    Channel(s) : 2 channels
    Channel positions : Front: L R
    Sampling rate : 48.0 KHz
    Bit depth : 16 bits
    Compression mode : Lossy
    Delay relative to video : 1s 0ms
    Stream size : 26.5 MiB (3%)

    Audio #4
    ID : 189 (0xBD)-132 (0x84)
    Format : AC-3
    Format/Info : Audio Coding 3
    Mode extension : CM (complete main)
    Format settings, Endianness : Big
    Muxing mode : DVD-Video
    Duration : 19mn 17s
    Bit rate mode : Constant
    Bit rate : 448 Kbps
    Channel(s) : 6 channels
    Channel positions : Front: L C R, Side: L R, LFE
    Sampling rate : 48.0 KHz
    Bit depth : 16 bits
    Compression mode : Lossy
    Stream size : 61.8 MiB (6%)

    Audio #5
    ID : 189 (0xBD)-138 (0x8A)
    Format : DTS
    Format/Info : Digital Theater Systems
    Mode : 16
    Format settings, Endianness : Big
    Muxing mode : DVD-Video
    Duration : 19mn 17s
    Bit rate mode : Constant
    Bit rate : 755 Kbps
    Channel(s) : 6 channels
    Channel positions : Front: L C R, Side: L R, LFE
    Sampling rate : 48.0 KHz
    Bit depth : 24 bits
    Compression mode : Lossy
    Stream size : 104 MiB (10%)

    Text
    ID : 189 (0xBD)-32 (0x20)
    Format : RLE
    Format/Info : Run-length encoding
    Muxing mode : DVD-Video
    Delay relative to video : 1s 400ms

    Menu

    Скриншоты для ознакомления

    Залил: carisha
    Размер скачиваемого торрента: 7.74 GB (8308176896 Bytes)

    Восставший из ада 2 / Hellbound: Hellraiser II (1988) DVD9 | P, A скачать через торрент бесплатно
    загрузка...
    Рейтинг →
     (голосов: 1, оценка 3/5, голосовать можно 1 раз )

    Другие торренты по теме:



      Комментарии (0):

      Информация

      Информация

        Посетители, находящиеся в группе Гости, не могут оставлять комментарии в данной новости.

        ↓ Меню



        ↓ Опрос

        А Вы добавили сайт в закладки?
        Да
        Не


        Top 10 за неделю (Фильмы)