.
Авторизация | Регистрация
Хочешь лучшие торренты? Добавь свой email!
Добавить
» » Паранойя / Paranoia (2013) BDRip-AVC | iPad | D скачать через торрент бесплатно




    Паранойя / Paranoia (2013) BDRip-AVC | iPad | D скачать через торрент бесплатно

    Опубликовал: Админ | Дата: 27-02-2015, 11:10 | Просмотров: 230



    Паранойя / Paranoia (2013) BDRip-AVC | iPad | D

    Русское название: Паранойя
    Русское название в мировом прокате: Paranoia
    Создали в: 2013
    Категория жанра: триллер, драма
    Главный режиссер: Роберт Лукетич
    Актеры: Лиам Хемсворт, Гари Олдман, Эмбер Хёрд, Харрисон Форд, Лукас Тилл, Эмбет Дэвидц, Джулиан МакМэхон, Джош Холлоуэй, Ричард Дрейфусс, Анджела Сарафян

    Сюжет фильма:
    Адам Кэссиди - типичный белый воротничок, пытающийся преуспеть на должности молодого специалиста в крупной телекоммуникационной корпорации. После одной весьма дорогостоящей ошибки он сталкивается лицом к лицу с безжалостным президентом компании, который соглашается не увольнять провинившегося при одном условии: Адам должен шпионить за старым наставником своего босса...


    Снималось в: США, Франция
    Киностудия: Demarest Films, EMJAG Productions, Gaumont, IM Global, Kintop Pictures, Reliance Entertainment
    Время просмотра: 01:46:06
    Перевод текста: Русский дублированный

    Файл
    Кодек для видео: H.264
    Качество фильма: BDRip-AVC 576p
    Информация о видео: 1024x428 (2.40:1) at 23.976 fps, AVC at 2000 kbps
    Информация о звуке:
    1: АAС 2.0 132 kbps - Русский дублированный
    2: АAС 2.0 132 kbps - Английский
    Субтитры: отсутствуют

    MI

    General
    Complete name : C:CREATE264mod0outParanoia.2013.BDRip.576p.D.m4v
    Format : MPEG-4
    Codec ID : M4V
    File size : 1.72 GiB
    Duration : 1h 46mn
    Overall bit rate mode : Variable
    Overall bit rate : 2 315 Kbps
    Movie name : Паранойя
    Performer : Robert Luketic
    Genre : Drama
    ContentType : Short Film
    Deion : Адам Кэссиди - типичный белый воротничок, пытающийся преуспеть на должности молодого специалиста в крупной телекоммуникационной корпорации.
    Recorded date : UTC 2013-08-16 07:00:00
    Encoded date : UTC 2014-04-02 12:19:56
    Tagged date : UTC 2014-04-02 12:22:08
    Copyright : © 2013 Paranoia Productions, LLC. All Rights Reserved.
    Cover : Yes
    Comment : В войне двух королей, даже пешка может победить
    ContentRating : mpaa|PG-13|300|

    Title/Sort : Paranoia
    LongDeion : Адам Кэссиди - типичный белый воротничок, пытающийся преуспеть на должности молодого специалиста в крупной телекоммуникационной корпорации. После одной весьма дорогостоящей ошибки он сталкивается лицом к лицу с безжалостным президентом компании, который соглашается не увольнять провинившегося при одном условии: Адам должен шпионить за старым наставником своего босса...
    AppleStoreCatalogID : 697770575
    Vendor : Apple:vendor_id:2013-466831

    Video
    ID : 1
    Format : AVC
    Format/Info : Advanced Video Codec
    Format profile : High@L4.1
    Format settings, CABAC : Yes
    Format settings, ReFrames : 9 frames
    Codec ID : avc1
    Codec ID/Info : Advanced Video Coding
    Duration : 1h 46mn
    Bit rate : 2 029 Kbps
    Maximum bit rate : 21.0 Mbps
    Width : 1 024 pixels
    Height : 428 pixels
    Display aspect ratio : 2.40:1
    Frame rate mode : Constant
    Frame rate : 23.976 fps
    Color space : YUV
    Chroma subsampling : 4:2:0
    Bit depth : 8 bits
    Scan type : Progressive
    Bits/(Pixel*Frame) : 0.193
    Stream size : 1.50 GiB (88%)
    Title : Paranoia _2013_
    Language : English
    Encoded date : UTC 2014-04-02 12:19:56
    Tagged date : UTC 2014-04-02 12:20:10
    Matrix coefficients : BT.709

    Audio #1
    ID : 2
    Format : AAC
    Format/Info : Advanced Audio Codec
    Format profile : LC
    Codec ID : 40
    Duration : 1h 46mn
    Bit rate mode : Variable
    Bit rate : 132 Kbps
    Maximum bit rate : 175 Kbps
    Channel(s) : 2 channels
    Channel positions : Front: L R
    Sampling rate : 48.0 KHz
    Compression mode : Lossy
    Stream size : 101 MiB (6%)
    Title : Dub
    Language : Russian
    Encoded date : UTC 2014-04-02 12:13:23
    Tagged date : UTC 2014-04-02 12:20:10

    Audio #2
    ID : 3
    Format : AAC
    Format/Info : Advanced Audio Codec
    Format profile : LC
    Codec ID : 40
    Duration : 1h 46mn
    Bit rate mode : Variable
    Bit rate : 135 Kbps
    Maximum bit rate : 175 Kbps
    Channel(s) : 2 channels
    Channel positions : Front: L R
    Sampling rate : 48.0 KHz
    Compression mode : Lossy
    Stream size : 103 MiB (6%)
    Title : Original
    Language : English
    Encoded date : UTC 2014-04-02 12:17:26
    Tagged date : UTC 2014-04-02 12:20:10

    Menu
    ID : 4
    Codec ID : text
    Duration : 1h 46mn
    Encoded date : UTC 2014-04-02 12:20:27
    Tagged date : UTC 2014-04-02 12:20:27
    Bit rate mode : CBR


    iTunes tags


    Sort Name: Paranoia
    XID: Apple:vendor_id:2013-466831
    Content ID: 697770575
    Copyright: © 2013 Paranoia Productions, LLC. All Rights Reserved.
    ScreenWriters: Джейсон Дин Холл, Бэрри Леви, Джозеф Финдер
    Producers: Уильям Д. Джонсон, Скотт Ламберт, Александра Милчэн
    Director: Роберт Лукетич
    Cast: Лиам Хемсворт, Гари Олдман, Эмбер Хёрд, Харрисон Форд, Лукас Тилл, Эмбет Дэвидц, Джулиан МакМэхон, Джош Холлоуэй, Ричард Дрейфусс, Анджела Сарафян // Liam Hemsworth (Adam Cassidy), Harrison Ford (Jock Goddard), Gary Oldman (Nicholas Wyatt), Amber Heard (Emma Jennings), Josh Holloway (Agent Gamble), Embeth Davidtz (Judith Bolton), Richard Dreyfuss (Frank Cassidy), Julian McMahon (Meechum), Lucas Till (Kevin), Angela Sarafyan (Alison), Charlie Hofheimer (Richard McCallister)
    Rating: PG-13
    Long Deion: Адам Кэссиди - типичный белый воротничок, пытающийся преуспеть на должности молодого специалиста в крупной телекоммуникационной корпорации. После одной весьма дорогостоящей ошибки он сталкивается лицом к лицу с безжалостным президентом компании, который соглашается не увольнять провинившегося при одном условии: Адам должен шпионить за старым наставником своего босса...
    Deion: Адам Кэссиди - типичный белый воротничок, пытающийся преуспеть на должности молодого специалиста в крупной телекоммуникационной корпорации.
    Release Date: 2013-08-16T07:00:00Z
    Genre: Drama
    Artist: Robert Luketic
    Name: Паранойя
    Comments: В войне двух королей, даже пешка может победить

    x264

    x264 info: frame I:1340 Avg QP:14.93 size: 76701
    x264 info: frame P:33549 Avg QP:17.54 size: 24168
    x264 info: frame B:117751 Avg QP:20.40 size: 5957
    x264 info: consecutive B-frames: 2.8% 2.1% 8.6% 17.6% 24.3% 35.2% 3.9% 0.8% 0.6% 2.1% 0.2% 0.1% 0.2% 1.4% 0.2%
    x264 info: mb I I16..4: 14.1% 48.5% 37.4%
    x264 info: mb P I16..4: 0.8% 6.0% 2.4% P16..4: 30.6% 38.4% 15.7% 0.0% 0.0% skip: 6.1%
    x264 info: mb B I16..4: 0.0% 0.4% 0.2% B16..8: 31.4% 17.8% 3.0% direct: 4.3% skip:42.8% L0:36.5% L1:45.2% BI:18.3%
    x264 info: 8x8 transform intra:60.8% inter:38.7%
    x264 info: coded y,uvDC,uvAC intra: 89.7% 85.2% 70.3% inter: 17.9% 13.4% 8.3%
    x264 info: i16 v,h,dc,p: 16% 12% 10% 61%
    x264 info: i8 v,h,dc,ddl,ddr,vr,hd,vl,hu: 12% 9% 7% 9% 12% 13% 12% 13% 13%
    x264 info: i4 v,h,dc,ddl,ddr,vr,hd,vl,hu: 14% 11% 5% 9% 13% 13% 12% 11% 12%
    x264 info: i8c dc,h,v,p: 39% 24% 22% 16%
    x264 info: Weighted P-Frames: Y:3.0% UV:1.8%
    x264 info: ref P L0: 61.4% 9.5% 13.4% 5.4% 3.6% 2.6% 1.9% 1.1% 1.0% 0.1% 0.0%
    x264 info: ref B L0: 88.9% 5.7% 2.6% 1.1% 0.7% 0.5% 0.4% 0.2%
    x264 info: ref B L1: 95.3% 4.7%
    x264 info: kb/s:2029.47




    Залил: gekka
    Размер скачиваемого торрента: 1.72 GB (1842526258 Bytes)

    Паранойя / Paranoia (2013) BDRip-AVC | iPad | D скачать через торрент бесплатно
    загрузка...
    Рейтинг →
     (голосов: 1, оценка 5/5, голосовать можно 1 раз )

    Другие торренты по теме:

  • Паранойя / Disturbia (2007) HDRip-AVC
  • OST - Паранойя / Disturbia (2007) MP3
  • Паранойя / Paranoia (2013) CAMRip скачать через торрент бесплатно
  • Паранойя / Paranoia (2013) CAMRip от INTERCINEMA скачать через торрент бесплатно
  • Паранойя / Paranoia (2013) HDRip-AVC | Звук с TS
  • Паранойя / Paranoia (2013) HDRip | Звук с TS
  • Паранойя / Paranoia (2013) BDRip 720p | Звук с TS
  • Паранойя / Paranoia (2013) BDRip 720p | L1, D скачать через торрент бесплатно


    • Комментарии (0):

      Информация

      Информация

        Посетители, находящиеся в группе Гости, не могут оставлять комментарии в данной новости.

        ↓ Меню



        ↓ Опрос

        А Вы добавили сайт в закладки?
        Да
        Не


        Top 10 за месяц (Фильмы)