.
Авторизация | Регистрация
» » Совместная поездка / Ride Along (2014) WEB-DLRip-AVC | L1 скачать через торрент бесплатно




    Совместная поездка / Ride Along (2014) WEB-DLRip-AVC | L1 скачать через торрент бесплатно

    Опубликовал: Админ | Дата: 27-02-2015, 11:10 | Просмотров: 213



    Детально о кино
    Русское название: Совместная поездка
    Русское название в мировом прокате: Ride Along
    Создали в: 2014
    Категория жанра: боевик, комедия
    Главный режиссер: Тим Стори
    Актеры: Айс Кьюб, Кевин Харт, Лоренс Фишбёрн, Джон Легуизамо, Брюс МакГилл, Тика Самптер, Брайан Коллен, Драгош Букур, Гари Оуэн, Джейкоб Латимор

    Сюжет фильма: Жениться ли на сестре этого полицейского? Не ошибись новобранец
    В жизни Бена Барбера все отлично: он работает охранником, играет в компьютерные игры, всегда сохраняет оптимистичный настрой и встречается с красоткой Анджелой, на которой намерен жениться. Проблема в его жизни только одна: помимо него в жизни Анджелы есть еще один важный мужчина – ее брат Джеймс, который ревностно охраняет честь сестры и отдавать ее замуж непонятно за кого не собирается. Увы, Бен для Джеймса – именно что непонятно кто, и даже просьба Анджелы поладить с ним и не судить строго не особенно его убеждают.
    Ведь Джеймс – не какой-то там придурковатый охранник, а самый настоящий крутой коп, работающий в полицейском управлении Атланты и ведущий серьезные расследования. Впрочем, этим двоим предстоит преодолеть разногласия и научиться работать в команде, причем не только ради счастья Анджелы. Дело в том, что Бен увязался с Джеймсом в патруль по улицам Атланты, и во время работы они натыкаются на улики, благодаря которым Джеймс может наконец завершить расследование, над которым трудится вот уже три года.




    Снималось в: США
    Киностудия: Cube Vision, LBI Entertainment, Rainforest Films, Universal Pictures
    Время просмотра: 01:39:32
    Перевод текста: Любительское (одноголосое) qwerty

    Файл
    Кодек для видео: h.264
    Качество фильма: WEB-DLRip-AVC
    Информация о видео: AVC, 1024 x 428, ~1816 kbps
    Информация о звуке: Русский: AC3, 192 kb/s (2 ch) / Английский: AC3, 384 kb/s (6 ch)
    Субтитры: Английский

    Семпл

    Скриншоты для ознакомления
    MI
    Общее
    Уникальный идентификатор : 168348648403719580577546155723716462494 (0x7EA6C532C2870C1E037BA147C20E879E)
    Полное имя : H:Совместная поездка Ride Along (2014) WEB-DLRip-AVCRide.Along.2014.WEB.DLRip-AVC.mkv
    Формат : Matroska
    Версия формата : Version 2
    Размер файла : 1,70 Гбайт
    Продолжительность : 1 ч. 39 м.
    Режим общего битрейта : Переменный
    Общий поток : 2441 Кбит/сек
    Программа кодирования : Lavf51.12.1
    Библиотека кодирования : Lavf51.12.1

    Видео
    Идентификатор : 1
    Формат : AVC
    Формат/Информация : Advanced Video Codec
    Профиль формата : Baseline@L3.1
    Параметр CABAC формата : Нет
    Параметр ReFrames формата : 1 кадр
    Параметр GOP формата : M=1, N=12
    Идентификатор кодека : V_MPEG4/ISO/AVC
    Продолжительность : 1 ч. 39 м.
    Вид битрейта : Переменный
    Битрейт : 1816 Кбит/сек
    Максимальный битрейт : 2790 Кбит/сек
    Ширина : 1024 пикселя
    Высота : 428 пикселей
    Соотношение сторон : 2,40:1
    Соотношение сторон в оригинале : 2,40:1
    Режим частоты кадров : Постоянный
    Частота кадров : 23,976 кадра/сек
    Частота кадров в оригинале : 24,000 кадра/сек
    Цветовое пространство : YUV
    Субдискретизация насыщенности : 4:2:0
    Битовая глубина : 8 бит
    Тип развёртки : Прогрессивная
    Бит/(Пиксели*Кадры) : 0.173
    Размер потока : 1,26 Гбайт (74%)
    Язык : English
    Default : Да
    Forced : Нет

    Аудио #1
    Идентификатор : 2
    Формат : AC-3
    Формат/Информация : Audio Coding 3
    Расширение режима : CM (complete main)
    Параметр Endianness формата : Big
    Идентификатор кодека : A_AC3
    Продолжительность : 1 ч. 39 м.
    Вид битрейта : Постоянный
    Битрейт : 192 Кбит/сек
    Каналы : 2 канала
    Расположение каналов : Front: L R
    Частота : 48,0 КГц
    Битовая глубина : 16 бит
    Метод сжатия : С потерями
    Размер потока : 137 Мбайт (8%)
    Язык : Russian
    Default : Да
    Forced : Нет

    Аудио #2
    Идентификатор : 4
    Формат : AC-3
    Формат/Информация : Audio Coding 3
    Расширение режима : CM (complete main)
    Параметр Endianness формата : Big
    Идентификатор кодека : A_AC3
    Продолжительность : 1 ч. 39 м.
    Вид битрейта : Постоянный
    Битрейт : 384 Кбит/сек
    Каналы : 6 каналов
    Расположение каналов : Front: L C R, Side: L R, LFE
    Частота : 48,0 КГц
    Битовая глубина : 16 бит
    Метод сжатия : С потерями
    Размер потока : 273 Мбайт (16%)
    Язык : English
    Default : Да
    Forced : Нет

    Текст
    Идентификатор : 3
    Формат : UTF-8
    Идентификатор кодека : S_TEXT/UTF8
    Идентификатор кодека/Информация : UTF-8 Plain Text
    Язык : English
    Default : Да
    Forced : Нет

    Размер скачиваемого торрента: 1.70 GB (1821993314 Bytes)

    Совместная поездка / Ride Along (2014) WEB-DLRip-AVC | L1 скачать через торрент бесплатно
    загрузка...
    Рейтинг →
     (голосов: 1, оценка 5/5, голосовать можно 1 раз )

    Другие торренты по теме:

  • Совместная поездка / Ride Along (2014) WEBRip от GOLIAF скачать через торрент бесплатно
  • Совместная поездка / Ride Along (2014) WEB-DLRip | L1 торрент скачать бесплатно
  • Совместная поездка / Ride Along (2014) WEB-DL 720p | L1 торрент скачать бесплатно
  • Совместная поездка / Ride Along (2014) BDRip 1080p от CINEMANIA | L1 скачать через торрент бесплатно
  • Совместная поездка / Ride Along (2014) BDRip 720p от CINEMANIA | L1 скачать через торрент бесплатно
  • Совместная поездка / Ride Along (2014) HDRip | L1 скачать через торрент бесплатно
  • Совместная поездка / Ride Along (2014) BDRip 1080p | L1 скачать через торрент бесплатно
  • Совместная поездка / Ride Along (2014) BDRip 720p | L1 скачать через торрент бесплатно


    • Комментарии (0):

      Информация

      Информация

        Посетители, находящиеся в группе Гости, не могут оставлять комментарии в данной новости.

        ↓ Меню



        ↓ Опрос

        А Вы добавили сайт в закладки?
        Да
        Не


        Top 10 за неделю (Фильмы)