.
Авторизация | Регистрация
Хочешь лучшие торренты? Добавь свой email!
Добавить
» » Гетеры майора Соколова (2014) DVDRip от New-Team | лицензия скачать через торрент бесплатно




    Гетеры майора Соколова (2014) DVDRip от New-Team | лицензия скачать через торрент бесплатно

    Опубликовал: Админ | Дата: 27-02-2015, 11:10 | Просмотров: 214



    Снималось в: Россия / Марс Медиа Энтертейнмент

    Категория жанра: военный, драма
    Создали в: 2014
    Время просмотра: ~00:48:30 - серия

    Перевод текста: Не требуется
    Субтитры подготовлены: нет
    Оригинальная аудиодорожка: русский

    Главный режиссер: Бахтиер Худойназаров

    Актеры: Андрей Панин, Сергей Гармаш, Филипп Янковский, Артур Смольянинов, Анатолий Гущин, Татьяна Лютаева,Дарья Мельникова, Алиса Горшкова, Анастасия Микульчина, Аглая Тарасова...

    Сюжет: Сентябрь 1939 года. Начало Второй Мировой войны. В Крым приезжает майор советской разведки Соколов. Его главная цель — выявить агентурную сеть террористической антисоветской организации РОВС. Руководит контрразведкой Русского общевоинского союза — штабс-капитан Семенов, псевдоним Крест.
    Крест и Соколов — давние враги. Белые офицеры, в 1917 году они оказались по разные стороны баррикад. Они прекрасно знают друг друга в лицо, хотели бы и не один раз могли бы убить друг друга, но каждому из них нужна гибель системы, которую представляет противник. Оба — азартные игроки — они начинают сложную партию, в которой шансы на победу почти равны. Каждый из них готов жертвовать любыми фигурами, включая себя, ведь на кону — Родина. Одна. Но для каждого своя…



    Качество фильма: DVDRip / DVD9 R5
    Тип видео: AVI

    Информация о видео: 720x400 (16:9), 25.000 fps, XviD ~ 1800 kbps avg, 0.250 bit/pixel
    Информация о звуке: 48 kHz, Dolby AC3, 6 ch, 448 kbps, русский

    Раздача от:

    MediaInfo

    Общее
    Полное имя : Getery.mayora.Sokolova.2014.DVDRip_New-Team_by_avproh1.avi
    Формат : AVI
    Формат/Информация : Audio Video Interleave
    Размер файла : 783 Мбайт
    Продолжительность : 48 м.
    Общий поток : 2258 Кбит/сек
    Программа кодирования : VirtualDubMod 1.5.10.3 | www.virtualdub-fr.org || (build 2550/release)
    Библиотека кодирования : VirtualDubMod build 2550/release

    Видео
    Идентификатор : 0
    Формат : MPEG-4 Visual
    Профиль формата : Advanced Simple@L5
    Параметр BVOP формата : 1
    Параметр QPel формата : Нет
    Параметр GMC формата : Без точки перехода
    Параметр матрицы формата : Выборочная
    Идентификатор кодека : XVID
    Идентификатор кодека/Подсказка : XviD
    Продолжительность : 48 м.
    Битрейт : 1800 Кбит/сек
    Ширина : 720 пикселей
    Высота : 400 пикселей
    Соотношение сторон : 16:9
    Частота кадров : 25,000 кадров/сек
    Цветовое пространство : YUV
    Субдискретизация насыщенности : 4:2:0
    Битовая глубина : 8 бит
    Тип развёртки : Прогрессивная
    Метод сжатия : С потерями
    Бит/(Пиксели*Кадры) : 0.250
    Размер потока : 624 Мбайт (80%)
    Библиотека кодирования : XviD 73

    Аудио
    Идентификатор : 1
    Формат : AC-3
    Формат/Информация : Audio Coding 3
    Расширение режима : CM (complete main)
    Параметр Endianness формата : Big
    Идентификатор кодека : 2000
    Продолжительность : 48 м.
    Вид битрейта : Постоянный
    Битрейт : 448 Кбит/сек
    Каналы : 6 каналов
    Расположение каналов : Front: L C R, Side: L R, LFE
    Частота : 48,0 КГц
    Битовая глубина : 16 бит
    Метод сжатия : С потерями
    Размер потока : 155 Мбайт (20%)
    Выравнивание : Разделение по промежуткам
    Продолжительность промежутка : 40 мс. (1,00 видеокадр)
    Время предзагрузки промежутка : 500 мс.

    Скриншоты для ознакомления:



    Залил: avproh
    Размер скачиваемого торрента: 6.14 GB (6596671488 Bytes)

    Гетеры майора Соколова (2014) DVDRip от New-Team | лицензия скачать через торрент бесплатно
    загрузка...
    Рейтинг →
     (голосов: 1, оценка 4/5, голосовать можно 1 раз )

    Другие торренты по теме:

  • Гетеры майора Соколова (2014) SATRip от Files-x скачать через торрент бесплатно
  • Гетеры майора Соколова (2014) WEB-DL 1080p от MediaClub скачать через торрент бесплатно
  • Гетеры майора Соколова (2014) WEB-DLRip-AVC от ExKinoRay
  • Гетеры майора Соколова (2014) WEB-DLRip скачать через торрент бесплатно
  • Гетеры майора Соколова (2014) HDTVRip от New-Team скачать через торрент бесплатно
  • Гетеры майора Соколова (2014) HDTV 1080i от Files-x скачать через торрент бесплатно
  • Гетеры майора Соколова (2014) HDTVRip-AVC скачать через торрент бесплатно
  • Гетеры майора Соколова (2014) HDTVRip-AVC от New-Team скачать через торрент бесплатно


    • Комментарии (0):

      Информация

      Информация

        Посетители, находящиеся в группе Гости, не могут оставлять комментарии в данной новости.

        ↓ Меню



        ↓ Опрос

        А Вы добавили сайт в закладки?
        Да
        Не


        Top 10 за месяц (Фильмы)