.
Авторизация | Регистрация
Хочешь лучшие торренты? Добавь свой email!
Добавить
» » Нюхач (2013) BDRemux от ExKinoRay скачать через торрент бесплатно




    Нюхач (2013) BDRemux от ExKinoRay скачать через торрент бесплатно

    Опубликовал: Админ | Дата: 27-02-2015, 11:10 | Просмотров: 254



    Детально о кино

    Русское название в мировом прокате: Нюхач
    Создали в: 2013
    Категория жанра: Детектив
    Снималось в: Украина, Россия, Film.ua Production
    Главный режиссер: Артем Литвиненко
    Актеры: Кирилл Кяро, Иван Оганесян, Мария Аниканова, Нина Гогаева, Борис Каморзин, Тимофей Каратаев, Виолетта Трыкова, Тарас Готовцев, Денис Мартынов, Александр Новосёлов, Дмитрий Усов, Пётр Крылов (III)


    Сюжет фильма: Его зовут Нюхач. Он обладает сверхчувствительным обонянием, для него не существует тайн и нераскрываемых преступлений. По запаху Нюхач может рассказать все и даже больше о любом человеке: что он ел, с кем он спал, есть ли у него алиби. Уникальная способность Нюхача – его дар и проклятие одновременно. С одной стороны, он раскрывает самые изощренные и запутанные преступления, знает все сокровенные тайны политиков, бизнесменов и криминальных авторитетов. С другой - Нюхач абсолютно беззащитен перед окружающим миром, переполненным всевозможными запахами. Он не умеет строить отношения ни с женщинами, ни с близкими людьми, потому что знает о них все: ему невозможно сделать сюрприз, его нельзя обмануть, любой посторонний запах оттолкнет его от самого романтического свидания. У него сложная, но интересная жизнь...





    Файл

    Качество фильма: Blu-Ray Remux (1080i)
    Информация о видео: MPEG-4 AVC, ~ 6000 Кбит/с, 1920x1080, 25 кадр/с
    Информация о звуке: AC3, 2 ch, 256 Кбит/с
    Размер скачиваемого торрента: 18.42 ГБ
    Время просмотра: 8 х ~ 00:53:00
    Язык: Русский


    За исходник, большое спасибо HDClub
    Сохранены оригинальные чаптеры как на Blu-Ray.


    Инфо-файл

    Общее
    Уникальный идентификатор : 245327709309800746585557255380851923252 (0xB89065ED78881781810E45E9AA9E9934)
    Полное имя : D:ЗагрузкиNjuhach.2013.BDRemux.(1080i).ExKinoRayNjuhach.(1.serija.iz.8).2013.BDRemux.(1080i).ExKinoRay.mkv
    Формат : Matroska
    Версия формата : Version 2
    Размер файла : 2,41 Гбайт
    Продолжительность : 53 м.
    Режим общего битрейта : Переменный
    Общий поток : 6469 Кбит/сек
    Название фильма : Нюхач.2013.(1-я серия).Сборкa: ollan
    Дата кодирования : UTC 2014-04-01 23:04:02
    Программа кодирования : mkvmerge v5.6.0 (;Kenya Kane;) built on May 27 2012 16:44:04
    Библиотека кодирования : libebml v1.2.3 libmatroska v1.3.0

    Видео
    Идентификатор : 1
    Формат : AVC
    Формат/Информация : Advanced Video Codec
    Профиль формата : High@L4.1
    Параметр CABAC формата : Да
    Параметр ReFrames формата : 4 кадра
    Идентификатор кодека : V_MPEG4/ISO/AVC
    Продолжительность : 53 м.
    Вид битрейта : Переменный
    Битрейт : 6085 Кбит/сек
    Максимальный битрейт : 12,0 Мбит/сек
    Ширина : 1920 пикселей
    Высота : 1080 пикселей
    Соотношение сторон : 16:9
    Режим частоты кадров : Постоянный
    Частота кадров : 25,000 кадров/сек
    Стандарт вещания : PAL
    Цветовое пространство : YUV
    Субдискретизация насыщенности : 4:2:0
    Битовая глубина : 8 бит
    Тип развёртки : Чересстрочная
    Порядок развёртки : Верхнее поле первое
    Бит/(Пиксели*Кадры) : 0.117
    Размер потока : 2,27 Гбайт (94%)
    Язык : Russian
    Default : Да
    Forced : Нет
    Основные цвета : BT.709
    Характеристики трансфера : BT.709
    Коэффициенты матрицы : BT.709

    Аудио
    Идентификатор : 2
    Формат : AC-3
    Формат/Информация : Audio Coding 3
    Расширение режима : CM (complete main)
    Параметр Endianness формата : Big
    Идентификатор кодека : A_AC3
    Продолжительность : 53 м.
    Вид битрейта : Постоянный
    Битрейт : 256 Кбит/сек
    Каналы : 2 канала
    Расположение каналов : Front: L R
    Частота : 48,0 КГц
    Битовая глубина : 16 бит
    Метод сжатия : С потерями
    Размер потока : 97,7 Мбайт (4%)
    Язык : Russian
    Default : Да
    Forced : Нет

    Меню
    00:00:00.000 : :Chapter 01
    00:08:10.640 : :Chapter 02
    00:20:49.520 : :Chapter 03
    00:30:05.120 : :Chapter 04
    00:40:19.440 : :Chapter 05
    00:53:22.120 : :Chapter 06

    Общее
    Уникальный идентификатор : 190744606678582130277940546925195177180 (0x8F80133172A7E66FA8D2C64F1D4C2CDC)
    Полное имя : D:ЗагрузкиNjuhach.2013.BDRemux.(1080i).ExKinoRayNjuhach.(2.serija.iz.8).2013.BDRemux.(1080i).ExKinoRay.mkv
    Формат : Matroska
    Версия формата : Version 2
    Размер файла : 2,40 Гбайт
    Продолжительность : 53 м.
    Режим общего битрейта : Переменный
    Общий поток : 6452 Кбит/сек
    Название фильма : Нюхач.2013.(2-я серия).Сборкa: ollan
    Дата кодирования : UTC 2014-04-01 23:10:01
    Программа кодирования : mkvmerge v5.6.0 (;Kenya Kane;) built on May 27 2012 16:44:04
    Библиотека кодирования : libebml v1.2.3 libmatroska v1.3.0

    Видео
    Идентификатор : 1
    Формат : AVC
    Формат/Информация : Advanced Video Codec
    Профиль формата : High@L4.1
    Параметр CABAC формата : Да
    Параметр ReFrames формата : 4 кадра
    Идентификатор кодека : V_MPEG4/ISO/AVC
    Продолжительность : 53 м.
    Вид битрейта : Переменный
    Битрейт : 6068 Кбит/сек
    Максимальный битрейт : 12,0 Мбит/сек
    Ширина : 1920 пикселей
    Высота : 1080 пикселей
    Соотношение сторон : 16:9
    Режим частоты кадров : Постоянный
    Частота кадров : 25,000 кадров/сек
    Стандарт вещания : PAL
    Цветовое пространство : YUV
    Субдискретизация насыщенности : 4:2:0
    Битовая глубина : 8 бит
    Тип развёртки : Чересстрочная
    Порядок развёртки : Верхнее поле первое
    Бит/(Пиксели*Кадры) : 0.117
    Размер потока : 2,26 Гбайт (94%)
    Язык : Russian
    Default : Да
    Forced : Нет
    Основные цвета : BT.709
    Характеристики трансфера : BT.709
    Коэффициенты матрицы : BT.709

    Аудио
    Идентификатор : 2
    Формат : AC-3
    Формат/Информация : Audio Coding 3
    Расширение режима : CM (complete main)
    Параметр Endianness формата : Big
    Идентификатор кодека : A_AC3
    Продолжительность : 53 м.
    Вид битрейта : Постоянный
    Битрейт : 256 Кбит/сек
    Каналы : 2 канала
    Расположение каналов : Front: L R
    Частота : 48,0 КГц
    Битовая глубина : 16 бит
    Метод сжатия : С потерями
    Размер потока : 97,6 Мбайт (4%)
    Язык : Russian
    Default : Да
    Forced : Нет

    Меню
    00:00:00.000 : :Chapter 01
    00:10:22.640 : :Chapter 02
    00:21:02.960 : :Chapter 03
    00:29:39.840 : :Chapter 04
    00:40:19.960 : :Chapter 05
    00:53:16.480 : :Chapter 06

    Общее
    Уникальный идентификатор : 173082738311947799339085604103848339073 (0x823685D9F7605F34BBA2CE4C02FE2681)
    Полное имя : D:ЗагрузкиNjuhach.2013.BDRemux.(1080i).ExKinoRayNjuhach.(3.serija.iz.8).2013.BDRemux.(1080i).ExKinoRay.mkv
    Формат : Matroska
    Версия формата : Version 2
    Размер файла : 2,39 Гбайт
    Продолжительность : 52 м.
    Режим общего битрейта : Переменный
    Общий поток : 6461 Кбит/сек
    Название фильма : Нюхач.2013.(3-я серия).Сборкa: ollan
    Дата кодирования : UTC 2014-04-01 23:12:26
    Программа кодирования : mkvmerge v5.6.0 (;Kenya Kane;) built on May 27 2012 16:44:04
    Библиотека кодирования : libebml v1.2.3 libmatroska v1.3.0

    Видео
    Идентификатор : 1
    Формат : AVC
    Формат/Информация : Advanced Video Codec
    Профиль формата : High@L4.1
    Параметр CABAC формата : Да
    Параметр ReFrames формата : 4 кадра
    Идентификатор кодека : V_MPEG4/ISO/AVC
    Продолжительность : 52 м.
    Вид битрейта : Переменный
    Битрейт : 6077 Кбит/сек
    Максимальный битрейт : 12,0 Мбит/сек
    Ширина : 1920 пикселей
    Высота : 1080 пикселей
    Соотношение сторон : 16:9
    Режим частоты кадров : Постоянный
    Частота кадров : 25,000 кадров/сек
    Стандарт вещания : PAL
    Цветовое пространство : YUV
    Субдискретизация насыщенности : 4:2:0
    Битовая глубина : 8 бит
    Тип развёртки : Чересстрочная
    Порядок развёртки : Верхнее поле первое
    Бит/(Пиксели*Кадры) : 0.117
    Размер потока : 2,25 Гбайт (94%)
    Язык : Russian
    Default : Да
    Forced : Нет
    Основные цвета : BT.709
    Характеристики трансфера : BT.709
    Коэффициенты матрицы : BT.709

    Аудио
    Идентификатор : 2
    Формат : AC-3
    Формат/Информация : Audio Coding 3
    Расширение режима : CM (complete main)
    Параметр Endianness формата : Big
    Идентификатор кодека : A_AC3
    Продолжительность : 52 м.
    Вид битрейта : Постоянный
    Битрейт : 256 Кбит/сек
    Каналы : 2 канала
    Расположение каналов : Front: L R
    Частота : 48,0 КГц
    Битовая глубина : 16 бит
    Метод сжатия : С потерями
    Размер потока : 96,9 Мбайт (4%)
    Язык : Russian
    Default : Да
    Forced : Нет

    Меню
    00:00:00.000 : :Chapter 01
    00:10:05.520 : :Chapter 02
    00:19:01.080 : :Chapter 03
    00:29:53.080 : :Chapter 04
    00:42:22.040 : :Chapter 05
    00:52:54.719 : :Chapter 06

    Общее
    Уникальный идентификатор : 233257403893244114308011832081342497927 (0xAF7BBDEC8E3EA61BB5C294C920EF8487)
    Полное имя : D:ЗагрузкиNjuhach.2013.BDRemux.(1080i).ExKinoRayNjuhach.(4.serija.iz.8).2013.BDRemux.(1080i).ExKinoRay.mkv
    Формат : Matroska
    Версия формата : Version 2
    Размер файла : 2,34 Гбайт
    Продолжительность : 51 м.
    Режим общего битрейта : Переменный
    Общий поток : 6450 Кбит/сек
    Название фильма : Нюхач.2013.(4-я серия).Сборкa: ollan
    Дата кодирования : UTC 2014-04-01 23:13:58
    Программа кодирования : mkvmerge v5.6.0 (;Kenya Kane;) built on May 27 2012 16:44:04
    Библиотека кодирования : libebml v1.2.3 libmatroska v1.3.0

    Видео
    Идентификатор : 1
    Формат : AVC
    Формат/Информация : Advanced Video Codec
    Профиль формата : High@L4.1
    Параметр CABAC формата : Да
    Параметр ReFrames формата : 4 кадра
    Идентификатор кодека : V_MPEG4/ISO/AVC
    Продолжительность : 51 м.
    Вид битрейта : Переменный
    Битрейт : 6065 Кбит/сек
    Максимальный битрейт : 12,0 Мбит/сек
    Ширина : 1920 пикселей
    Высота : 1080 пикселей
    Соотношение сторон : 16:9
    Режим частоты кадров : Постоянный
    Частота кадров : 25,000 кадров/сек
    Стандарт вещания : PAL
    Цветовое пространство : YUV
    Субдискретизация насыщенности : 4:2:0
    Битовая глубина : 8 бит
    Тип развёртки : Чересстрочная
    Порядок развёртки : Верхнее поле первое
    Бит/(Пиксели*Кадры) : 0.117
    Размер потока : 2,20 Гбайт (94%)
    Язык : Russian
    Default : Да
    Forced : Нет
    Основные цвета : BT.709
    Характеристики трансфера : BT.709
    Коэффициенты матрицы : BT.709

    Аудио
    Идентификатор : 2
    Формат : AC-3
    Формат/Информация : Audio Coding 3
    Расширение режима : CM (complete main)
    Параметр Endianness формата : Big
    Идентификатор кодека : A_AC3
    Продолжительность : 51 м.
    Вид битрейта : Постоянный
    Битрейт : 256 Кбит/сек
    Каналы : 2 канала
    Расположение каналов : Front: L R
    Частота : 48,0 КГц
    Битовая глубина : 16 бит
    Метод сжатия : С потерями
    Размер потока : 95,1 Мбайт (4%)
    Язык : Russian
    Default : Да
    Forced : Нет

    Меню
    00:00:00.000 : :Chapter 01
    00:13:15.200 : :Chapter 02
    00:19:07.440 : :Chapter 03
    00:33:02.239 : :Chapter 04
    00:40:13.800 : :Chapter 05
    00:51:57.200 : :Chapter 06

    Общее
    Уникальный идентификатор : 252831284920285913267643847543263345377 (0xBE3588C4A5832BAB84E8BC7F74A43AE1)
    Полное имя : D:ЗагрузкиNjuhach.2013.BDRemux.(1080i).ExKinoRayNjuhach.(5.serija.iz.8).2013.BDRemux.(1080i).ExKinoRay.mkv
    Формат : Matroska
    Версия формата : Version 2
    Размер файла : 2,30 Гбайт
    Продолжительность : 51 м.
    Режим общего битрейта : Переменный
    Общий поток : 6448 Кбит/сек
    Название фильма : Нюхач.2013.(5-я серия).Сборкa: ollan
    Дата кодирования : UTC 2014-04-01 23:15:47
    Программа кодирования : mkvmerge v5.6.0 (;Kenya Kane;) built on May 27 2012 16:44:04
    Библиотека кодирования : libebml v1.2.3 libmatroska v1.3.0

    Видео
    Идентификатор : 1
    Формат : AVC
    Формат/Информация : Advanced Video Codec
    Профиль формата : High@L4.1
    Параметр CABAC формата : Да
    Параметр ReFrames формата : 4 кадра
    Идентификатор кодека : V_MPEG4/ISO/AVC
    Продолжительность : 51 м.
    Вид битрейта : Переменный
    Битрейт : 6063 Кбит/сек
    Максимальный битрейт : 12,0 Мбит/сек
    Ширина : 1920 пикселей
    Высота : 1080 пикселей
    Соотношение сторон : 16:9
    Режим частоты кадров : Постоянный
    Частота кадров : 25,000 кадров/сек
    Стандарт вещания : PAL
    Цветовое пространство : YUV
    Субдискретизация насыщенности : 4:2:0
    Битовая глубина : 8 бит
    Тип развёртки : Чересстрочная
    Порядок развёртки : Верхнее поле первое
    Бит/(Пиксели*Кадры) : 0.117
    Размер потока : 2,16 Гбайт (94%)
    Язык : Russian
    Default : Да
    Forced : Нет
    Основные цвета : BT.709
    Характеристики трансфера : BT.709
    Коэффициенты матрицы : BT.709

    Аудио
    Идентификатор : 2
    Формат : AC-3
    Формат/Информация : Audio Coding 3
    Расширение режима : CM (complete main)
    Параметр Endianness формата : Big
    Идентификатор кодека : A_AC3
    Продолжительность : 51 м.
    Вид битрейта : Постоянный
    Битрейт : 256 Кбит/сек
    Каналы : 2 канала
    Расположение каналов : Front: L R
    Частота : 48,0 КГц
    Битовая глубина : 16 бит
    Метод сжатия : С потерями
    Размер потока : 93,6 Мбайт (4%)
    Язык : Russian
    Default : Да
    Forced : Нет

    Меню
    00:00:00.000 : :Chapter 01
    00:09:38.920 : :Chapter 02
    00:22:31.400 : :Chapter 03
    00:32:35.760 : :Chapter 04
    00:42:02.560 : :Chapter 05
    00:51:05.440 : :Chapter 06

    Общее
    Уникальный идентификатор : 218956994499414137499672830341643692714 (0xA4B9954E2A1B4C268D9B123C0552EAAA)
    Полное имя : D:ЗагрузкиNjuhach.2013.BDRemux.(1080i).ExKinoRayNjuhach.(6.serija.iz.8).2013.BDRemux.(1080i).ExKinoRay.mkv
    Формат : Matroska
    Версия формата : Version 2
    Размер файла : 2,23 Гбайт
    Продолжительность : 49 м.
    Режим общего битрейта : Переменный
    Общий поток : 6449 Кбит/сек
    Название фильма : Нюхач.2013.(6-я серия).Сборкa: ollan
    Дата кодирования : UTC 2014-04-01 23:17:18
    Программа кодирования : mkvmerge v5.6.0 (;Kenya Kane;) built on May 27 2012 16:44:04
    Библиотека кодирования : libebml v1.2.3 libmatroska v1.3.0

    Видео
    Идентификатор : 1
    Формат : AVC
    Формат/Информация : Advanced Video Codec
    Профиль формата : High@L4.1
    Параметр CABAC формата : Да
    Параметр ReFrames формата : 4 кадра
    Идентификатор кодека : V_MPEG4/ISO/AVC
    Продолжительность : 49 м.
    Вид битрейта : Переменный
    Битрейт : 6065 Кбит/сек
    Максимальный битрейт : 12,0 Мбит/сек
    Ширина : 1920 пикселей
    Высота : 1080 пикселей
    Соотношение сторон : 16:9
    Режим частоты кадров : Постоянный
    Частота кадров : 25,000 кадров/сек
    Стандарт вещания : PAL
    Цветовое пространство : YUV
    Субдискретизация насыщенности : 4:2:0
    Битовая глубина : 8 бит
    Тип развёртки : Чересстрочная
    Порядок развёртки : Верхнее поле первое
    Бит/(Пиксели*Кадры) : 0.117
    Размер потока : 2,10 Гбайт (94%)
    Язык : Russian
    Default : Да
    Forced : Нет
    Основные цвета : BT.709
    Характеристики трансфера : BT.709
    Коэффициенты матрицы : BT.709

    Аудио
    Идентификатор : 2
    Формат : AC-3
    Формат/Информация : Audio Coding 3
    Расширение режима : CM (complete main)
    Параметр Endianness формата : Big
    Идентификатор кодека : A_AC3
    Продолжительность : 49 м.
    Вид битрейта : Постоянный
    Битрейт : 256 Кбит/сек
    Каналы : 2 канала
    Расположение каналов : Front: L R
    Частота : 48,0 КГц
    Битовая глубина : 16 бит
    Метод сжатия : С потерями
    Размер потока : 90,8 Мбайт (4%)
    Язык : Russian
    Default : Да
    Forced : Нет

    Меню
    00:00:00.000 : :Chapter 01
    00:08:31.319 : :Chapter 02
    00:19:27.119 : :Chapter 03
    00:30:59.719 : :Chapter 04
    00:40:10.120 : :Chapter 05
    00:49:35.320 : :Chapter 06

    Общее
    Уникальный идентификатор : 174478911445075579654755801302729553312 (0x83436A80648316CDA9419C672250F5A0)
    Полное имя : D:ЗагрузкиNjuhach.2013.BDRemux.(1080i).ExKinoRayNjuhach.(7.serija.iz.8).2013.BDRemux.(1080i).ExKinoRay.mkv
    Формат : Matroska
    Версия формата : Version 2
    Размер файла : 2,19 Гбайт
    Продолжительность : 48 м.
    Режим общего битрейта : Переменный
    Общий поток : 6512 Кбит/сек
    Название фильма : Нюхач.2013.(7-я серия).Сборкa: ollan
    Дата кодирования : UTC 2014-04-01 23:19:02
    Программа кодирования : mkvmerge v5.6.0 (;Kenya Kane;) built on May 27 2012 16:44:04
    Библиотека кодирования : libebml v1.2.3 libmatroska v1.3.0

    Видео
    Идентификатор : 1
    Формат : AVC
    Формат/Информация : Advanced Video Codec
    Профиль формата : High@L4.1
    Параметр CABAC формата : Да
    Параметр ReFrames формата : 4 кадра
    Идентификатор кодека : V_MPEG4/ISO/AVC
    Продолжительность : 48 м.
    Вид битрейта : Переменный
    Битрейт : 6126 Кбит/сек
    Максимальный битрейт : 12,0 Мбит/сек
    Ширина : 1920 пикселей
    Высота : 1080 пикселей
    Соотношение сторон : 16:9
    Режим частоты кадров : Постоянный
    Частота кадров : 25,000 кадров/сек
    Стандарт вещания : PAL
    Цветовое пространство : YUV
    Субдискретизация насыщенности : 4:2:0
    Битовая глубина : 8 бит
    Тип развёртки : Чересстрочная
    Порядок развёртки : Верхнее поле первое
    Бит/(Пиксели*Кадры) : 0.118
    Размер потока : 2,06 Гбайт (94%)
    Язык : Russian
    Default : Да
    Forced : Нет
    Основные цвета : BT.709
    Характеристики трансфера : BT.709
    Коэффициенты матрицы : BT.709

    Аудио
    Идентификатор : 2
    Формат : AC-3
    Формат/Информация : Audio Coding 3
    Расширение режима : CM (complete main)
    Параметр Endianness формата : Big
    Идентификатор кодека : A_AC3
    Продолжительность : 48 м.
    Вид битрейта : Постоянный
    Битрейт : 256 Кбит/сек
    Каналы : 2 канала
    Расположение каналов : Front: L R
    Частота : 48,0 КГц
    Битовая глубина : 16 бит
    Метод сжатия : С потерями
    Размер потока : 88,2 Мбайт (4%)
    Язык : Russian
    Default : Да
    Forced : Нет

    Меню
    00:00:00.000 : :Chapter 01
    00:09:42.680 : :Chapter 02
    00:20:57.400 : :Chapter 03
    00:28:16.440 : :Chapter 04
    00:41:36.719 : :Chapter 05
    00:48:10.600 : :Chapter 06

    Общее
    Уникальный идентификатор : 199601668335634782479090714612377738829 (0x9629E20C451CA5B6BD9C786729925E4D)
    Полное имя : D:ЗагрузкиNjuhach.2013.BDRemux.(1080i).ExKinoRayNjuhach.(8.serija.iz.8).2013.BDRemux.(1080i).ExKinoRay.mkv
    Формат : Matroska
    Версия формата : Version 2
    Размер файла : 2,16 Гбайт
    Продолжительность : 47 м.
    Режим общего битрейта : Переменный
    Общий поток : 6438 Кбит/сек
    Название фильма : Нюхач.2013.(8-я серия).Сборкa: ollan
    Дата кодирования : UTC 2014-04-01 23:20:50
    Программа кодирования : mkvmerge v5.6.0 (;Kenya Kane;) built on May 27 2012 16:44:04
    Библиотека кодирования : libebml v1.2.3 libmatroska v1.3.0

    Видео
    Идентификатор : 1
    Формат : AVC
    Формат/Информация : Advanced Video Codec
    Профиль формата : High@L4.1
    Параметр CABAC формата : Да
    Параметр ReFrames формата : 4 кадра
    Идентификатор кодека : V_MPEG4/ISO/AVC
    Продолжительность : 47 м.
    Вид битрейта : Переменный
    Битрейт : 6053 Кбит/сек
    Максимальный битрейт : 12,0 Мбит/сек
    Ширина : 1920 пикселей
    Высота : 1080 пикселей
    Соотношение сторон : 16:9
    Режим частоты кадров : Постоянный
    Частота кадров : 25,000 кадров/сек
    Стандарт вещания : PAL
    Цветовое пространство : YUV
    Субдискретизация насыщенности : 4:2:0
    Битовая глубина : 8 бит
    Тип развёртки : Чересстрочная
    Порядок развёртки : Верхнее поле первое
    Бит/(Пиксели*Кадры) : 0.117
    Размер потока : 2,03 Гбайт (94%)
    Язык : Russian
    Default : Да
    Forced : Нет
    Основные цвета : BT.709
    Характеристики трансфера : BT.709
    Коэффициенты матрицы : BT.709

    Аудио
    Идентификатор : 2
    Формат : AC-3
    Формат/Информация : Audio Coding 3
    Расширение режима : CM (complete main)
    Параметр Endianness формата : Big
    Идентификатор кодека : A_AC3
    Продолжительность : 47 м.
    Вид битрейта : Постоянный
    Битрейт : 256 Кбит/сек
    Каналы : 2 канала
    Расположение каналов : Front: L R
    Частота : 48,0 КГц
    Битовая глубина : 16 бит
    Метод сжатия : С потерями
    Размер потока : 87,8 Мбайт (4%)
    Язык : Russian
    Default : Да
    Forced : Нет

    Меню
    00:00:00.000 : :Chapter 01
    00:10:33.240 : :Chapter 02
    00:22:52.760 : :Chapter 03
    00:30:56.400 : :Chapter 04
    00:39:49.760 : :Chapter 05
    00:47:57.920 : :Chapter 06



    Скриншоты для ознакомления







    Релиз подготовил: Сборка:
    Залил: ollan
    Размер скачиваемого торрента: 18.42 GB (19782917607 Bytes)

    Нюхач (2013) BDRemux от ExKinoRay скачать через торрент бесплатно
    загрузка...
    Рейтинг →
     (голосов: 1, оценка 5/5, голосовать можно 1 раз )

    Другие торренты по теме:

  • Нюхач (2013) SATRip от GeneralFilm
  • Нюхач (2013) SATRip от Simka BigFANGroup
  • Нюхач (2013) SATRip от Simka amp BigFANGroup
  • Нюхач (2013) SATRip | КПК от MediaClub скачать через торрент бесплатно
  • Нюхач (2013) HDTVRip | Nikolspup скачать через торрент бесплатно
  • Нюхач (2013) HDTVRip от MediaClub скачать через торрент бесплатно
  • Нюхач (2013) WEB-DLRip от Generalfilm
  • Нюхач (2013) WEB-DLRip от Generalfilm | КПК скачать через торрент бесплатно


    • Комментарии (0):

      Информация

      Информация

        Посетители, находящиеся в группе Гости, не могут оставлять комментарии в данной новости.

        ↓ Меню



        ↓ Опрос

        А Вы добавили сайт в закладки?
        Да
        Не


        Top 10 за месяц (Фильмы)