.
Авторизация | Регистрация
Хочешь лучшие торренты? Добавь свой email!
Добавить
» » Воскрешение / Resurrection (2014) WEB-DL 1080p | NewStudio скачать через торрент бесплатно




    Воскрешение / Resurrection (2014) WEB-DL 1080p | NewStudio скачать через торрент бесплатно

    Опубликовал: Админ | Дата: 27-02-2015, 11:10 | Просмотров: 177


    Детально о кино
    Русское название: Воскрешение / Resurrection
    Создали в: 2014
    Категория жанра: Фэнтези, драма
    Главный режиссеры: Дэниэл Эттиэс, Кевин Даулинг, Чарльз МакДугалл
    Актеры: Самира Армстронг, Мэтт Крэвен, Омар Эппс, Фрэнсис Фишер, Лэндон Хименес, Сэм Хэзелдайн, Марк Хилдрет, Кертвуд Смит, Трэвис Янг, Кевин Сайзмор, Тэмлин Томита, Эйприл Биллингсли, Майкл Хардинг, Джейсон Сосьер, Гари Викс

    Сюжет фильма:
    В центре сюжета находятся жители маленького городка, которые сталкиваются с возвращением из мёртвых своих близких людей…




    Список серий:

    01. The Returned
    02. Unearth
    03. Two Rivers

    Тех. данные


    Время просмотра: 04 x ~ 00:45:00
    Снималось в: США, ABC Studios, Brillstein Entertainment Partners, Plan B Entertainment
    Перевод текста: Профессиональный многоголосый

    Файл
    Тип видео: MKV
    Качество фильма: WEB-DL 1080p
    Информация о видео: MPEG-4 AVC, ~ 4900 Кбит/с, 1920x1080
    Информация о звуке: Русский, английский (AC3, 6 ch, 384 Кбит/с)
    MI:

    Общее
    Уникальный идентификатор : 178204588357174758645078345692851470418 (0x8610F48E2CF7F5E9B8F8EB19FACC0052)
    Полное имя : resurrection.s01e01.webdl.720p_NewStudio.TV.mkv
    Формат : Matroska
    Версия формата : Version 2
    Размер файла : 1,48 Гбайт
    Продолжительность : 43 м.
    Общий поток : 4925 Кбит/сек
    Дата кодирования : UTC 2014-03-22 10:31:05
    Программа кодирования : mkvmerge v2.9.9 (;Tutu;) built on Nov 25 2009 21:13:32
    Библиотека кодирования : libebml v0.7.9 libmatroska v0.8.1

    Видео
    Идентификатор : 1
    Формат : AVC
    Формат/Информация : Advanced Video Codec
    Профиль формата : High@L3.1
    Параметр CABAC формата : Нет
    Параметр ReFrames формата : 2 кадра
    Идентификатор кодека : V_MPEG4/ISO/AVC
    Продолжительность : 43 м.
    Битрейт : 4059 Кбит/сек
    Ширина : 1280 пикселей
    Высота : 720 пикселей
    Соотношение сторон : 16:9
    Режим частоты кадров : Постоянный
    Частота кадров : 23,976 кадра/сек
    Цветовое пространство : YUV
    Субдискретизация насыщенности : 4:2:0
    Битовая глубина : 8 бит
    Тип развёртки : Прогрессивная
    Бит/(Пиксели*Кадры) : 0.184
    Размер потока : 1,22 Гбайт (82%)
    Язык : English
    Default : Нет
    Forced : Нет
    Основные цвета : BT.709
    Характеристики трансфера : BT.709
    Коэффициенты матрицы : BT.709

    Аудио #1
    Идентификатор : 2
    Формат : AC-3
    Формат/Информация : Audio Coding 3
    Расширение режима : CM (complete main)
    Параметр Endianness формата : Big
    Идентификатор кодека : A_AC3
    Продолжительность : 43 м.
    Вид битрейта : Постоянный
    Битрейт : 384 Кбит/сек
    Каналы : 6 каналов
    Расположение каналов : Front: L C R, Side: L R, LFE
    Частота : 48,0 КГц
    Битовая глубина : 16 бит
    Метод сжатия : С потерями
    Размер потока : 118 Мбайт (8%)
    Язык : Russian
    Default : Да
    Forced : Да

    Аудио #2
    Идентификатор : 3
    Формат : AC-3
    Формат/Информация : Audio Coding 3
    Расширение режима : CM (complete main)
    Параметр Endianness формата : Big
    Идентификатор кодека : A_AC3
    Продолжительность : 43 м.
    Вид битрейта : Постоянный
    Битрейт : 384 Кбит/сек
    Каналы : 6 каналов
    Расположение каналов : Front: L C R, Side: L R, LFE
    Частота : 48,0 КГц
    Битовая глубина : 16 бит
    Метод сжатия : С потерями
    Размер потока : 118 Мбайт (8%)
    Язык : English
    Default : Нет
    Forced : Нет
    Скриншоты для ознакомления


    * 3 скрин чуть позже.

    Размер скачиваемого торрента: 6.73 GB (7221292544 Bytes)

    Воскрешение / Resurrection (2014) WEB-DL 1080p | NewStudio скачать через торрент бесплатно
    загрузка...
    Рейтинг →
     (голосов: 1, оценка 3/5, голосовать можно 1 раз )

    Другие торренты по теме:

  • Хэллоуин: Воскрешение / Halloween: Resurrection (2002) HDRip | A
  • Страх 2: Хэллоуин / Страх 2: Воскрешение / The Fear 2: Resurrection / Fear 2: Halloween Night (1999) DVDRip | А
  • Чужой 4: Воскрешение / Alien: Resurrection (1997) BDREMUX 1080p от RP4 CHG
  • Воскрешение / A Resurrection (2013) HDRip | L2
  • Мамонт: Воскрешение из мертвых / Mammoth: Back from the Dead (2013) IPTVRip | P1
  • Чужой 4: Воскрешение / Alien: Resurrection (1997) BDRip 1080p от Freeisland | Theatrical cut
  • Воскрешение из ада / Makai tensho (1981) DVDRip-AVC | A
  • Чужой 4. Воскрешение / Alien. Resurrection (1997) HDRip | D | Театральная версия


    • Комментарии (0):

      Информация

      Информация

        Посетители, находящиеся в группе Гости, не могут оставлять комментарии в данной новости.

        ↓ Меню



        ↓ Опрос

        А Вы добавили сайт в закладки?
        Да
        Не


        Top 10 за месяц (Фильмы)