.
Авторизация | Регистрация
Хочешь лучшие торренты? Добавь свой email!
Добавить
» » Крутые чуваки / Bad Asses (2014) BDRip-AVC | L1 торрент скачать бесплатно




    Крутые чуваки / Bad Asses (2014) BDRip-AVC | L1 торрент скачать бесплатно

    Опубликовал: Админ | Дата: 27-02-2015, 11:10 | Просмотров: 242



    Детально о кино
    Русское название: Крутые чуваки
    Русское название в мировом прокате: Bad Asses
    Создали в: 2014
    Категория жанра: боевик
    Главный режиссер: Крэйг Мосс
    Актеры: Дэнни Трехо, Дэнни Гловер, Эндрю Дивофф, Жаклин Обрадорс, Софи Ди, Данте Баско, Джонатан Липники, Чарли Карвер, Сара Дюмон, Игнасио Серричио

    Сюжет фильма:
    Фрэнк Вега мало похож на настоящего героя, тем не менее, когда нужно надрать задницы бандитам – ему нет равных. На этот раз Фрэнк вступает в конфронтацию с наркоторговцами, взявшими под контроль улицы Лос-Анджелеса и насаждающие свои порядки в городе. Но поскольку даже для Фрэнка слишком тяжело в одиночку сражаться с целой армией наемников, он обращается за помощью к своему приятелю Берни. Вместе они легко очистят здешние улицы от всяких засранцев!




    Снималось в: США
    Киностудия: Sense and Sensibility Ventures, Silver Nitrate Films
    Время просмотра: 01:30:43
    Перевод текста: Любительское (одноголосое) datynet

    Файл
    Кодек для видео: h.264
    Качество фильма: BDRip-AVC
    Информация о видео: AVC, 1024 x 576, ~1810 kbps
    Информация о звуке: Русский / Английский : AC3, 448 kb/s (6 ch)
    Субтитры: Английский

    Семпл

    Скриншоты для ознакомления
    MI
    Общее
    Уникальный идентификатор : 168348648403719580577546155723716462494 (0x7EA6C532C2870C1E037BA147C20E879E)
    Полное имя : H:Крутые чуваки Bad Asses (2014) BDRip-AVCBad.Asses.2014.BDRip-AVC.mkv
    Формат : Matroska
    Версия формата : Version 2
    Размер файла : 1,75 Гбайт
    Продолжительность : 1 ч. 30 м.
    Режим общего битрейта : Переменный
    Общий поток : 2761 Кбит/сек
    Программа кодирования : Lavf51.12.1
    Библиотека кодирования : Lavf51.12.1

    Видео
    Идентификатор : 1
    Формат : AVC
    Формат/Информация : Advanced Video Codec
    Профиль формата : Baseline@L3.1
    Параметр CABAC формата : Нет
    Параметр ReFrames формата : 1 кадр
    Параметр GOP формата : M=1, N=12
    Идентификатор кодека : V_MPEG4/ISO/AVC
    Продолжительность : 1 ч. 30 м.
    Вид битрейта : Переменный
    Битрейт : 1810 Кбит/сек
    Максимальный битрейт : 2790 Кбит/сек
    Ширина : 1024 пикселя
    Высота : 576 пикселей
    Соотношение сторон : 16:9
    Режим частоты кадров : Постоянный
    Частота кадров : 23,976 кадра/сек
    Частота кадров в оригинале : 24,000 кадра/сек
    Цветовое пространство : YUV
    Субдискретизация насыщенности : 4:2:0
    Битовая глубина : 8 бит
    Тип развёртки : Прогрессивная
    Бит/(Пиксели*Кадры) : 0.128
    Размер потока : 1,15 Гбайт (66%)
    Язык : English
    Default : Да
    Forced : Нет

    Аудио #1
    Идентификатор : 2
    Формат : AC-3
    Формат/Информация : Audio Coding 3
    Расширение режима : CM (complete main)
    Параметр Endianness формата : Big
    Идентификатор кодека : A_AC3
    Продолжительность : 1 ч. 30 м.
    Вид битрейта : Постоянный
    Битрейт : 448 Кбит/сек
    Каналы : 6 каналов
    Расположение каналов : Front: L C R, Side: L R, LFE
    Частота : 48,0 КГц
    Битовая глубина : 16 бит
    Метод сжатия : С потерями
    Размер потока : 291 Мбайт (16%)
    Язык : Russian
    Default : Да
    Forced : Нет

    Аудио #2
    Идентификатор : 4
    Формат : AC-3
    Формат/Информация : Audio Coding 3
    Расширение режима : CM (complete main)
    Параметр Endianness формата : Big
    Идентификатор кодека : A_AC3
    Продолжительность : 1 ч. 30 м.
    Вид битрейта : Постоянный
    Битрейт : 448 Кбит/сек
    Каналы : 6 каналов
    Расположение каналов : Front: L C R, Side: L R, LFE
    Частота : 48,0 КГц
    Битовая глубина : 16 бит
    Метод сжатия : С потерями
    Размер потока : 291 Мбайт (16%)
    Язык : English
    Default : Да
    Forced : Нет

    Текст
    Идентификатор : 3
    Формат : UTF-8
    Идентификатор кодека : S_TEXT/UTF8
    Идентификатор кодека/Информация : UTF-8 Plain Text
    Язык : English
    Default : Да
    Forced : Нет

    Размер скачиваемого торрента: 1.75 GB (1877534335 Bytes)

    Крутые чуваки / Bad Asses (2014) BDRip-AVC | L1 торрент скачать бесплатно
    загрузка...
    Рейтинг →
     (голосов: 1, оценка 5/5, голосовать можно 1 раз )

    Другие торренты по теме:

  • Крутые чуваки / Bad Asses (2014) BDRip 1080p от CINEMANIA | L1 скачать через торрент бесплатно
  • Крутые чуваки / Bad Asses (2014) BDRip 720p от CINEMANIA | L1 скачать через торрент бесплатно
  • Крутые чуваки / Bad Asses (2014) HDRip | L1 скачать через торрент бесплатно
  • Крутые чуваки / Bad Asses (2014) BDRip 720p | L1 скачать через торрент бесплатно
  • Крутые чуваки на Байю / Bad Asses on the Bayou / 2015 / ДБ / WEBRip (2160p)


    • Комментарии (0):

      Информация

      Информация

        Посетители, находящиеся в группе Гости, не могут оставлять комментарии в данной новости.

        ↓ Меню



        ↓ Опрос

        А Вы добавили сайт в закладки?
        Да
        Не


        Top 10 за месяц (Фильмы)