.
Авторизация | Регистрация
Хочешь лучшие торренты? Добавь свой email!
Добавить
» » Морская полиция: Лос-Анджелес / NCIS: Los Angeles (2012) HDTVRip | Sub торрент скачать бесплатно




    Морская полиция: Лос-Анджелес / NCIS: Los Angeles (2012) HDTVRip | Sub торрент скачать бесплатно

    Опубликовал: Админ | Дата: 27-02-2015, 11:10 | Просмотров: 442

    Морская полиция: Лос Анджелес / NCIS: Los Angeles / Сезон: 5

    Год выпуска: 2013
    Страна: США
    Жанр: триллер, драма, криминал, детектив
    Продолжительность: 00:45:00
    Перевод: субтитры
    Русские субтитры: есть
    Субтитры: Notabenoid(1-2 серии) (rishik5, pIv, Quatra, kalibr, even, Tyroesse ,..., начиная с 3 серии - ldinka, Ljelyka, monkeymisha, PolinaPolukhina )

    Режиссёр: Тони Уормби, Терренс О’Хара, Джеймс Уитмор мл.

    В ролях: Крис О`Доннелл, LL Кул Джей, Линда Хант, Peter Cambor, Daniela Ruah, Адам Ямал Крэйг, Barrett Foa, Роки Кэрролл, Клер Кэри, Винсент Де Пол

    Описание: 5-й сезон любимого сериала NCIS: Los Angeles — драмы о сложной работе — наблюдении под прикрытием.

    Отдел особых проектов — подразделение NCIS, которое занимается опасными преступниками, угрожающими безопасности всей страны. Используя фальшивые личности и последние технологии, команда специалистов работает под прикрытием, рискуя собственными жизнями ради достижения цели. Специальный агент Джи Каллен — хамелеон, который способен трансформироваться в кого угодно, чтобы проникнуть в преступный мир.

    Его напарник — специальный агент Сэм Ханна, бывший морской котик, который участвовал в боях в Афганистане и в Ираке, эксперт по наблюдению, который использует последние достижения мониторинга для наблюдения за полевыми агентами и связи с ними. Помогает команде специальный агент Кенси Блай, необыкновенно одаренная дочь погибшего морпеха, которая обожает риск, сопутствующий работе под прикрытием. Психолог Нэйт Гетц способен понять мотивы любого человека, он составляет профили преступников и наблюдает за психологическим состоянием оперативников. Эта небольшая команда полагается друг на друга и готова сделать все, чтобы защитить национальные интересы.

    Доп. информация


    Сэмпл



    Качество: HDTVRip
    Формат: AVI
    Видео кодек: XviD
    Аудио кодек: MP3
    Видео: XviD, 624x352px, 23.976 fps, 974 Kbps, 0.178bit/pixel
    Аудио: MP3, 48000Hz, 2 channels, 128Kbps

    MediaInfo

    бщее
    Полное имя : E:ДЛЯ РАЗДАЧИСериалыNCIS.LA.s5NCIS.Los.Angeles.S05E01.HDTV.avi
    Формат : AVI
    Формат/Информация : Audio Video Interleave
    Размер файла : 349 Мбайт
    Продолжительность : 43 м.
    Общий поток : 1111 Кбит/сек
    Программа кодирования : VirtualDubMod 1.5.10.2 (build 2540/release)
    Библиотека кодирования : VirtualDubMod build 2540/release

    Видео
    Идентификатор : 0
    Формат : MPEG-4 Visual
    Профиль формата : Advanced Simple@L5
    Параметр BVOP формата : 2
    Параметр QPel формата : Нет
    Параметр GMC формата : Без точки перехода
    Параметр матрицы формата : Default (H.263)
    Режим смешивания : Сжатый битовый поток
    Идентификатор кодека : XVID
    Идентификатор кодека/Подсказка : XviD
    Продолжительность : 43 м.
    Битрейт : 974 Кбит/сек
    Ширина : 624 пикселя
    Высота : 352 пикселя
    Соотношение сторон : 16:9
    Частота кадров : 23,976 кадра/сек
    Цветовое пространство : YUV
    Субдискретизация насыщенности : 4:2:0
    Битовая глубина : 8 бит
    Тип развёртки : Прогрессивная
    Метод сжатия : С потерями
    Бит/(Пиксели*Кадры) : 0.185
    Размер потока : 306 Мбайт (88%)
    Библиотека кодирования : XviD 64

    Аудио
    Идентификатор : 1
    Формат : MPEG Audio
    Версия формата : Version 1
    Профиль формата : Layer 3
    Режим : Joint stereo
    Расширение режима : MS Stereo
    Идентификатор кодека : 55
    Идентификатор кодека/Подсказка : MP3
    Продолжительность : 43 м.
    Вид битрейта : Постоянный
    Битрейт : 128 Кбит/сек
    Каналы : 2 канала
    Частота : 48,0 КГц
    Метод сжатия : С потерями
    Размер потока : 40,2 Мбайт (12%)
    Выравнивание : Соединение по промежуткам
    Продолжительность промежутка : 42 мс. (1,00 видеокадр)
    Время предзагрузки промежутка : 504 мс.

    Скриншоты для ознакомления



    Внимание! Раздача ведётся путём добавления новых серий

    Внимание! Раздача ведётся путём добавления новых серий; при каждом добавлении создётся новый торрент. Чтобы начать докачку новой серии, пользователям необходимо сделать следующее:
    1) остановить скачивание;
    2) удалить старый торрент у себя из клиента (старые серии удалять не надо);
    3) скачать новый торрент и запустить его у себя в клиенте вместо старого, при этом указать клиенту путь в старую папку куда и должно происходить скачивание новых серий.
    Ваш клиент при этом должен произвести хеширование (проверку) старой папки (если не производит сам - помогите ему сделать это), и будет докачивать только те серии которых у вас ещё нет. Старые серии при этом не удаляются, а продолжают раздаваться!
    Eсли вы уже удалили старые серии, то предотвратить повторную закачку старых серий можно, отжав галочку в соответсвующих местах при запуске нового торрента.

    Размер скачиваемого торрента: 6.48 GB (6957071045 Bytes)

    Морская полиция: Лос-Анджелес / NCIS: Los Angeles (2012) HDTVRip | Sub торрент скачать бесплатно
    загрузка...
    Рейтинг →
     (голосов: 1, оценка 5/5, голосовать можно 1 раз )

    Другие торренты по теме:

  • Морская полиция: Лос-Анджелес / NCIS: Los Angeles (2012) WEB-DLRip
  • Морская Полиция: Лос-Анджелес / NCIS: Los Angeles (2010-2011) WEB-DLRip от MediaClub | FOX
  • Морская полиция: Новый Орлеан / NCIS: New Orleans (2014) WEB-DL 1080p | BaibaKo скачать через торрент бесплатно
  • Морская Полиция: Лос-Анджелес / NCIS: Los Angeles (2010-2011) WEB-DLRip от MediaClub | FOX скачать через торрент бесплатно
  • Морская Полиция: Лос-Анджелес / NCIS: Los Angeles (2010-2011) WEB-DL 720р от MediaClub | FOX скачать через торрент бесплатно
  • Морская Полиция: Спецотдел / NCIS: Naval Criminal Investigative Service (2007) SATRip | FOX
  • Морская Полиция: Лос-Анджелес / NCIS: Los Angeles (2011-2012) WEB-DLRip от CasStudio | P | FOX
  • Морская полиция: Новый Орлеан / NCIS: New Orleans (2014) WEB-DLRip | BaibaKo


    • Комментарии (0):

      Информация

      Информация

        Посетители, находящиеся в группе Гости, не могут оставлять комментарии в данной новости.

        ↓ Меню



        ↓ Опрос

        А Вы добавили сайт в закладки?
        Да
        Не


        Top 10 за месяц (Фильмы)